アットウィキロゴ
すきなことだけでいいです
ピノキオピー

ADVANCED

Level: 8
BPM: 140
Notes: 571

1
口口口口 |----|
口口口口 |----|
口口口口 |----|
口口口口 |----|
2
②②①① |①---|
口口口口 |----|
口口口口 |②---|
口口口口 |----|
3
口口口口 |①---|
口口口口 |----|
口口口口 |②---|
②②①① |----|
4
口口①① |①---|
②②口口 |②---|
口口③③ |③---|
④④口口 |④---|
5
②②①① |①-②-|
④④③③ |③-④-|
⑥⑥⑤⑤ |⑤-⑥-|
口⑦⑦口 |⑦---|
6
口②口① |①---|
②口口口 |②---|
④口口口 |③---|
口④口③ |④---|
7
②口口口 |①---|
口②口① |②---|
④⑤⑥③ |③-④-|
口口口口 |⑤-⑥-|
8
①口②口 |①---|
口口口② |②---|
口口口④ |③---|
③口④口 |④---|
9
口口口② |①---|
①口②口 |②---|
③⑥⑤④ |③-④-|
口口口口 |⑤-⑥-|
10
①⑤口④ |--①-|
口②③口 |②-③-|
口⑥口口 |④---|
口口口口 |⑤-⑥-|
11
口口口① |--①-|
口口口② |②-③-|
④⑤④③ |④---|
口④口口 |--⑤-|
12
④口⑤① |--①-|
口③②口 |②-③-|
口口⑥口 |④---|
口口口口 |⑤-⑥-|
13
口口⑤口 |--①-|
①口口⑤ |②-③-|
②④口④ |④---|
③口④口 |--⑤-|
14
⑦⑦口口 |--①-|
①②③口 |②-③-|
④⑤⑥口 |④-⑤-|
口口口口 |⑥-⑦-|
15
口口①口 |--①-|
口②口口 |②-③-|
口口③口
口口口口

口口⑤口
口口口⑤
口口口口 |④---|
口④口口 |--⑤-|
16
⑦⑦口口 |--①-|
④⑤⑥口 |②-③-|
①②③口 |④-⑤-|
口口口口 |⑥-⑦-|
17
口口口口 |--①-|
口②口口 |----|
口①①口 |----|
口口口口 |--②-|
18
口口口口 |--①-|
口⑥口口 |②-③-|
口②③口 |④---|
①⑤口④ |⑤-⑥-|
19
口口口口 |--①-|
④⑤④③ |②-③-|
口④口② |④---|
口口口① |--⑤-|
20
口口口口 |--①-|
口口⑥口 |②-③-|
口③②口 |④---|
④口⑤① |⑤-⑥-|
21
③口口口 |--①-|
②④口④ |②-③-|
①口④⑤ |④---|
口口⑤口 |--⑤-|
22
口口口口 |--①-|
④⑤⑥口 |②-③-|
①②③口 |④-⑤-|
⑦⑦口口 |⑥-⑦-|
23
口口口③ |--①-|
口口口② |②-③-|
口口口①
口口口口

④口④口
口④口口
口口口⑤ |④---|
口口⑤口 |--⑤-|
24
口口口口 |--①-|
①②③口 |②-③-|
④⑤⑥口 |④-⑤-|
⑦⑦口口 |⑥-⑦-|
25
口口③③ |①-②-|
②口①① |③---|
口口口口
口口口口

口口口口
口口⑤⑤
口口④④ |④---|
口口口口 |⑤---|
26
①口口③ |①-②-|
口⑥④口 |--③-|
②⑤口口 |④-⑤-|
口口口口 |--⑥-|
27
口③口口 |①-②-|
⑥口④口 |--③-|
①口口⑤ |④-⑤-|
口②口口 |--⑥-|
28
③④⑤⑥ |①-②-|
⑦口口口 |--③-|
口①口口 |④-⑤-|
口口②口 |⑥-⑦-|
29
口口口口 |①-②-|
口①②③ |③-④-|
口④④口 |----|
口口口口 |----|
30
③口口① |①-②-|
口④⑥口 |--③-|
口口⑤② |④-⑤-|
口口口口 |--⑥-|
31
口口③口 |①-②-|
口④口⑥ |--③-|
⑤口口① |④-⑤-|
口口②口 |--⑥-|
32
④口口③ |①-②-|
⑥口口⑤ |--③-|
口口①⑦ |④-⑤-|
口②口口 |⑥-⑦-|
33
口①①口 |①-②-|
⑥③③⑥ |③-④-|
口⑤⑤口 |⑤---|
②口口④ |⑥---|
34
口②口① |①②③④|
口口⑤口 |⑤-⑥-|
⑥④口③
口口口口

口口口⑨
⑦⑦口口
口口口⑩ |⑦-⑧-|
口⑧⑧口 |-⑨-⑩|
35
④口⑤口 |①②③-|
口口⑨⑨ |④-⑤-|
①②③口 |⑥⑦⑧-|
⑥⑦⑧口 |⑨---|
36
①口②口 |①②③④|
口⑤口口 |⑤-⑥-|
③口④⑥
口口口口

⑨口口口
口口⑦⑦
⑩口口口 |⑦-⑧-|
口⑧⑧口 |-⑨-⑩|
37
口⑤口④ |①②③-|
⑨⑨口口 |④-⑤-|
口③②① |⑥⑦⑧-|
口⑧⑦⑥ |⑨---|
38
口②口① |①②③④|
口口⑤口 |⑤-⑥-|
⑥④口③
口口口口

口口口口
⑦⑦口⑨
口⑩口口 |⑦-⑧-|
口⑧⑧口 |-⑨-⑩|
39
①口②口 |①②③④|
口⑤⑦⑦ |⑤-⑥-|
③口④⑥ |⑦-⑧-|
口⑧⑧口 |----|
40
③③①① |①-②-|
⑦⑦⑤⑤ |③-④-|
④④②② |⑤-⑥-|
⑧⑧⑥⑥ |⑦-⑧-|
41
④⑥⑤① |①②③④|
⑧⑥⑤⑦ |⑤-⑥-|
⑧③②⑦ |⑦-⑧-|
口口口口 |----|
42
口②口① |①②③④|
口口⑤口 |⑤-⑥-|
⑥④口③
口口口口

口口口⑨
口⑦口⑦
口口口⑩ |⑦-⑧-|
口⑧⑧⑧ |-⑨-⑩|
43
④口⑤口 |①②③-|
⑩口口口 |④-⑤-|
①②③口 |⑥⑦⑧⑨|
⑥⑦⑧⑨ |⑩---|
44
①口②口 |①②③④|
口⑤口口 |⑤-⑥-|
③口④⑥
口口口口

⑨口口口
⑦口⑦口
⑩口口口 |⑦-⑧-|
⑧⑧⑧口 |-⑨-⑩|
45
口⑤口④ |①②③-|
口口口⑩ |④-⑤-|
口③②① |⑥⑦⑧⑨|
⑨⑧⑦⑥ |⑩---|
46
口②口① |①②③④|
口口⑤口 |⑤-⑥-|
⑥④口③
口口口口

口口口⑨
口⑦口⑦
口⑩口口 |⑦-⑧-|
口⑧⑧⑧ |-⑨-⑩|
47
①口②口 |①②③④|
⑦⑤⑦口 |⑤-⑥-|
③口④⑥ |⑦-⑧-|
⑧⑧⑧口 |----|
48
③③①① |①-②-|
⑦⑦⑤⑤ |③-④-|
④④②② |⑤-⑥-|
⑧⑧⑥⑥ |⑦-⑧-|
49
口③②口 |①②③④|
⑧⑥⑤⑦ |⑤-⑥-|
④⑥⑤① |⑦-⑧-|
⑧口口⑦ |----|
50
口②口① |①②③④|
口⑥口⑤ |⑤⑥⑦⑧|
口④口③
口⑧口⑦

⑪⑫⑬口
⑩口口口
口口⑨口 |⑨-⑩-|
口口口口 |-⑪⑫⑬|
51
口口口口 |①②③-|
口⑤口④ |④-⑤-|
①②③⑩ |⑥⑦⑧⑨|
⑨⑧⑦⑥ |⑩---|
52
①口②口 |①②③④|
⑤口⑥口 |⑤⑥⑦⑧|
③口④口
⑦口⑧口

口⑬⑫⑪
口口口⑩
口⑨口口 |⑨-⑩-|
口口口口 |-⑪⑫⑬|
53
口口口口 |①②③-|
④口⑤口 |④-⑤-|
⑩③②① |⑥⑦⑧⑨|
⑥⑦⑧⑨ |⑩---|
54
口②口① |①②③④|
口⑥口⑤ |⑤⑥⑦⑧|
口④口③
口⑧口⑦

口口口⑪
⑩口口口
口口⑨⑫ |⑨-⑩-|
口口口口 |-⑪-⑫|
55
①口②口 |①②③④|
⑤口⑥⑩ |⑤⑥⑦⑧|
③⑨④口 |⑨-⑩-|
⑦口⑧口 |----|
56
③③①① |①-②-|
⑦⑦⑤⑤ |③-④-|
④④②② |⑤-⑥-|
⑧⑧⑥⑥ |⑦-⑧-|
57
⑤③⑦① |①②③④|
⑨⑪⑪⑨ |⑤⑥⑦⑧|
④⑥②⑧ |⑨-⑩-|
⑩⑫⑫⑩ |⑪-⑫-|
58
口②口① |①---|
②口口口 |②---|
④口口口 |③---|
口④口③ |④---|
59
②口口口 |①---|
口②口① |②---|
④⑤⑥③ |③-④-|
口口口口 |⑤-⑥-|
60
①口②口 |①---|
口口口② |②---|
口口口④ |③---|
③口④口 |④---|
61
口口口② |①---|
①口②口 |②---|
③⑥⑤④ |③-④-|
口口口口 |⑤-⑥-|
62
①口②口 |①-②-|
③口④口 |③-④-|
⑤口⑥口 |⑤-⑥-|
⑦口⑧口 |⑦-⑧-|
63
口⑦口⑧ |①-②-|
口⑤口⑥ |③-④-|
口③口④ |⑤-⑥-|
口①口② |⑦-⑧-|
64
①口②口 |①-②-|
③口④口 |③-④-|
⑤口⑥口 |⑤-⑥-|
⑦口⑧口 |⑦-⑧-|
65
口⑦口⑧ |①-②-|
口⑤口⑥ |③-④-|
口③口④ |⑤-⑥-|
口①口② |⑦-⑧-|

accuracy: 99.5%
最終更新:2023年01月17日 11:26