アットウィキロゴ
すきなことだけでいいです
ピノキオピー

EXTREME

Level: 9.5
BPM: 140
Notes: 773

1
口口口口 |----|
口口口口 |----|
口口口口 |----|
口口口口 |----|
2
口口①② |①---|
口口口③ |②---|
口口口④ |③---|
口口口口 |④---|
3
口口口口 |①---|
口口口口 |②---|
口口口口 |③---|
④③②① |④---|
4
③④⑤⑥ |①-②-|
②口口⑦ |③-④-|
①口口⑧ |⑤-⑥-|
口口口口 |⑦-⑧-|
5
⑦⑧口口 |①②③④|
⑥口口口 |⑤⑥⑦⑧|
⑤口口口
④③②①

口口⑨⑩
口⑮⑯⑪
口⑭⑬⑫ |⑨⑩⑪⑫⑬⑭⑮⑯|
口⑰⑰口 |⑰---|
6
①②③⑤ |①②③-|
口口口口 |④-⑤-|
口口⑤口
④口口①

口口口口
⑥口⑦⑨
口⑧口口 |⑥-⑦-|
口口⑨⑦ |⑧-⑨-|
7
⑤③②① |①②③-|
口⑦⑧⑨ |④-⑤-|
口⑤⑥④ |⑥-⑦-|
⑦⑧⑨口 |⑧-⑨-|
8
①②③⑤ |①②③-|
口⑥⑦⑨ |④-⑤-|
④⑧⑤口 |⑥-⑦-|
口口⑨⑦ |⑧-⑨-|
9
①口口④ |①-②-|
口口口口 |③-④-|
③口口②
口口口口

⑨⑪⑧口
⑪⑤口口
口口⑥口 |⑤⑥⑦⑧|
口⑦口⑩ |⑨⑩⑪-|
10
⑥⑥口④ |--①-|
口口④① |②-③-|
②④口口 |④---|
④⑤③口 |⑤-⑥-|
11
口口②口 |--①-|
口③口口 |②-③-|
口①口口
口口口口

口口⑤口
口口口⑤
口口④口 |④---|
口口口口 |--⑤-|
12
口口口口 |--①-|
①口口口 |②-③-|
口口口②
③口口口

④⑤⑤口
口④⑤口
口⑤④⑥ |④---|
口⑤⑤④ |⑤-⑥-|
13
①口口口 |--①-|
口口口② |②-③-|
③口口口
口口口口

⑤口口口
口口口口
口口口口 |④---|
口口④口 |--⑤-|
14
⑦④口口 |--①-|
口口⑤① |②-③-|
口口②⑥ |④-⑤-|
口③口口 |⑥-⑦-|
15
④口⑤③ |--①-|
②④③① |②-③-|
口③④口 |④---|
③口口④ |--⑤-|
16
口②口④ |--①-|
口⑥⑦口 |②-③-|
口口口口 |④-⑤-|
①③口⑤ |⑥-⑦-|
17
③口口口 |-①②-|
口口口口 |③---|
口①口口
口口②口

口口口口
④口⑥口
⑤⑥口口 |④---|
口口⑥口 |⑤-⑥-|
18
口口口口 |--①-|
③①口② |②-③-|
口口①口
口①口口

口口⑥④
口⑤④口
口④⑤口 |④---|
④⑥口口 |⑤-⑥-|
19
①口口口 |--①-|
口⑤⑤② |②-③-|
③⑤⑤口 |④---|
口口口④ |--⑤-|
20
④⑤⑤① |--①-|
口④口③ |②-③-|
口口④口 |④---|
②⑥⑥④ |⑤-⑥-|
21
口⑤③⑤ |--①-|
②口口① |②-③-|
①口口② |④---|
口④口口 |--⑤-|
22
口口口口 |--①-|
①口口口 |②-③-|
口口口③
口口②口

口⑦口⑥
⑦口④口
口口口口 |④-⑤-|
⑤口口口 |⑥-⑦-|
23
口⑤③⑤ |--①-|
口口④③ |②-③-|
②④口① |④---|
口②①口 |--⑤-|
24
口口口口 |--①-|
②口口② |②-③-|
③口口③
①口①口

④⑦⑤④
口⑤⑤⑦
口口⑥口 |④-⑤-|
口⑥⑥⑥ |⑥-⑦-|
25
⑤口口口 |①-②-|
④口口口 |③---|
③②口② |④---|
①口口口 |⑤---|
26
口③①口 |①-②-|
③②④① |--③-|
⑥④②⑤ |④-⑤-|
口⑥⑤口 |--⑥-|
27
口⑤②⑥ |①-②-|
⑤①④② |--③-|
口④①③ |④-⑤-|
口口③口 |--⑥-|
28
②口口口 |①-②-|
口口⑦④ |③-④-|
口⑥口口 |⑤-⑥-|
③⑧⑤① |⑦-⑧-|
29
口口口① |①-②-|
②口口口 |③-④-|
口口口③ |----|
④口口口 |----|
30
口③①口 |①-②-|
③②④① |--③-|
⑥④②⑤ |④-⑤-|
口⑥⑤口 |--⑥-|
31
口⑤②⑥ |①-②-|
⑤①④② |--③-|
口④①③ |④-⑤-|
口口③口 |--⑥-|
32
⑤⑧口⑤ |①-②-|
口②⑦口 |③-④-|
④⑥③口 |⑤-⑥-|
①口口① |⑦-⑧-|
33
③⑨①⑤ |①-②-|
口口口⑧ |③-④-|
⑦④②口 |⑤---|
⑤①③⑥ |⑥⑦⑧⑨|
34
⑧⑩⑨⑦ |①②③④|
⑩⑤②⑨ |⑤⑥⑦⑧|
⑬④①⑫ |⑨-⑩-|
口⑥③⑪ |⑪⑫-⑬|
35
④⑤⑥口 |①②③-|
⑪⑧②⑩ |④⑤⑥-|
口⑦①口 |⑦⑧⑨-|
⑪⑨③⑩ |⑩-⑪-|
36
⑧⑩⑨⑦ |①②③④|
⑩⑤②⑨ |⑤⑥⑦⑧|
⑫④①⑪ |⑨-⑩-|
⑫⑥③⑪ |-⑪-⑫|
37
④⑫⑦① |①②③-|
⑧⑤②口 |④⑤⑥-|
口③⑥⑨ |⑦⑧⑨⑩|
⑩口口⑪ |⑪⑫--|
38
⑧⑩⑨⑦ |①②③④|
⑩⑤②⑨ |⑤⑥⑦⑧|
⑫④①⑪ |⑨-⑩-|
⑫⑥③⑪ |-⑪-⑫|
39
⑧⑩⑨⑦ |①②③④|
⑩⑤②⑨ |⑤⑥⑦⑧|
口④①口 |⑨-⑩-|
口⑥③口 |----|
40
③口口① |①-②-|
口③①⑤ |③-④⑤|
口④②口
④口口②

口⑩⑪口
口⑫⑨口
⑥口口⑦ |⑥⑦⑧⑨|
口⑧口口 |⑩-⑪⑫|
41
②⑨⑧① |①②③④|
④⑪⑩③ |⑤⑥⑦-|
⑥口口⑤ |⑧⑨⑩⑪|
口口口⑦ |----|
42
⑩⑧⑦⑨ |①②③④|
⑤⑩⑨② |⑤⑥⑦⑧|
⑫④①⑪ |⑨-⑩-|
⑫⑥③⑪ |-⑪-⑫|
43
⑪⑦⑪口 |①②③-|
⑤口⑧② |④⑤⑥-|
⑨④①口 |⑦⑧⑨⑩|
口⑥③⑩ |⑪---|
44
⑩⑧⑦⑨ |①②③④|
⑤⑩⑨② |⑤⑥⑦⑧|
⑫④①⑪ |⑨-⑩-|
⑫⑥③⑪ |-⑪-⑫|
45
⑧口口⑦ |①②③-|
④⑩⑨① |④⑤⑥-|
口⑤②⑪ |⑦⑧⑨⑩|
口③⑥口 |⑪---|
46
⑩⑧⑦⑨ |①②③④|
⑤⑩⑨② |⑤⑥⑦⑧|
口④①口 |⑨-⑩-|
⑫⑥③⑪ |-⑪-⑫|
47
⑩⑧⑦⑨ |①②③④|
⑤⑩⑨② |⑤⑥⑦⑧|
口④①口 |⑨-⑩-|
口⑥③口 |----|
48
口③①口 |①-②-|
口口口口 |③-④⑤|
①口⑤③
④口口②

口口口口
⑨口口⑥
⑫⑧口⑪ |⑥⑦⑧⑨|
口⑩⑦口 |⑩-⑪⑫|
49
④③②① |①②③④|
口口⑤口 |⑤⑥⑦-|
口⑥口口
口口⑦口

口口口⑪
⑧口口口
口口口⑨ |⑧⑨⑩⑪|
⑩口口口 |----|
50
口⑧⑦口 |①②③④|
⑤口口② |⑤⑥⑦⑧|
口④①口
⑥口口③

⑩口口⑨
口⑬⑫⑪
⑩口口⑨ |⑨-⑩-|
口口口口 |-⑪⑫⑬|
51
④口①⑤ |①②③-|
②口口口 |④-⑤⑥|
④口③⑤
口⑥口口

口⑦⑪口
口口⑧口
口口口口 |⑦⑧⑨⑩|
⑨口⑩口 |⑪---|
52
口⑧⑦口 |①②③④|
⑤口口② |⑤⑥⑦⑧|
口④①口
⑥口口③

⑩口口⑨
口⑪⑫⑬
⑩口口⑨ |⑨-⑩-|
口口口口 |-⑪⑫⑬|
53
⑦⑤④⑥ |①②③-|
①口⑧口 |④⑤⑥⑦|
口⑨②⑫ |⑧⑨⑩⑪|
⑪③⑩口 |⑫---|
54
口⑧⑦口 |①②③④|
⑤口口② |⑤⑥⑦⑧|
口④①口
⑥口口③

⑩口口⑨
⑫口口⑪
⑩口口⑨ |⑨-⑩-|
⑫口口⑪ |-⑪-⑫|
55
⑩⑧①⑨ |①②③④|
口④⑤口 |⑤⑥⑦⑧|
⑩⑥③⑨ |⑨-⑩-|
口②⑦口 |----|
56
口③①⑤ |①-②-|
③①③① |③-④⑤|
④②④②
口④②口

⑥口口口
口口口⑨
口⑩口⑪ |⑥⑦⑧⑨|
⑧口⑫⑦ |⑩-⑪⑫|
57
⑧⑦⑥⑤ |①②③④|
口①口口 |⑤⑥⑦⑧|
②口③口
口④口口

口口口口
⑫⑩⑨⑪
口口口口 |⑨-⑩-|
⑩⑫⑪⑨ |⑪-⑫-|
58
④②③⑥ |①-②-|
口⑦⑤⑧ |③-④-|
②④⑥① |⑤-⑥-|
口口⑧⑤ |⑦-⑧-|
59
口口②④ |①-②-|
③口口口 |③-④-|
①口④②
口口口口

口口口口
⑧⑦⑥口
口⑤口口 |⑤-⑥-|
口⑧⑦⑥ |⑦-⑧-|
60
④②口口 |①-②-|
口口口口 |③-④-|
②④③①
口口口口

口口⑥⑧
口⑦口⑤
口口⑧⑥ |⑤-⑥-|
口口⑤口 |⑦-⑧-|
61
⑧⑦⑥口 |①-②-|
⑤口②④ |③-④-|
①⑧⑦⑥ |⑤-⑥-|
口③④② |⑦-⑧-|
62
口口⑤口 |①②③④|
④⑥③口 |⑤⑥⑦⑧|
②口⑦口
口⑧①口

口⑮⑱⑨
口口⑯⑩
口⑰口⑪ |⑨⑩⑪⑫⑬-⑭-|
⑬口⑭⑫ |⑮⑯⑰⑱|
63
①口口④ |①②③④|
⑤⑦口⑧ |⑤⑥⑦⑧|
③口②⑥
口口口口

⑬口⑭⑯
⑰口口口
⑮口⑱口 |⑨⑩⑪⑫⑬-⑭-|
⑨⑩⑪⑫ |⑮⑯⑰⑱|
64
口⑦⑧口 |①②③④|
口③②⑥ |⑤⑥⑦⑧|
口①口④
口⑤口口

⑨口口⑬
⑩⑯⑰口
⑪⑭口口 |⑨⑩⑪⑫⑬-⑭-|
⑫⑱口⑮ |⑮⑯⑰⑱|
65
④②口⑦ |①②③④|
口⑧口③ |⑤⑥⑦⑧|
⑥口①⑤
口口口口

口⑱⑬口
⑭口⑰口
口⑯⑮口 |⑨⑩⑪⑫⑬-⑭-|
⑫⑪⑩⑨ |⑮⑯⑰⑱|

accuracy: 99.5%
最終更新:2023年01月17日 11:26