アットウィキロゴ
拙者拙者拙者拙者
ヒゲドライバー & ゆよゆっぺ

EXTREME

Level: 10.2
BPM: 195
Notes(hold): 820(40)

1
口口口口 |----|
口口口口 |----|
口口口口 |----|
口口口口 |----|
2
口口口口 |----|
口口口口 |----|
口口口口 |----|
口口口口 |----|
3
口口口口 |----|
口口口口 |----|
口口口口 |----|
口口口口 |----|
4
口口口口 |----|
口口口口 |----|
口口口口 |----|
口口口口 |----|
5
①口口① |----|
①口口① |----|
①口口① |①---|
口口口口 |----|
6
∨口口口 |①---|
┃口口口 |----|
┃口口口 |----|
①口口口 |----|
7
口口①① |①---|
口口口口 |----|
口口口口 |----|
口口口口 |----|
8
口∨口口 |①---|
口┃口口 |----|
口┃口② |----|
①①口口 |②---|
9
口口①① |①---|
②口口口 |--②-|
口口口③ |----|
口口口口 |③---|
10
②口∨口 |①---|
口③┃口 |②---|
④口┃口 |③---|
口①①口 |④---|
11
口口②∨ |①---|
口③口┃ |②---|
④口口┃ |③---|
口口①① |④---|
12
∨口口∨ |①---|
①④③① |②---|
口口口口 |③---|
口②①① |④---|
13
①③③④ |①---|
①口⑤① |②---|
口⑥口口 |③---|
⑦③③② |④⑤⑥⑦----|
14
②口口口 |①---|
口口口口 |②---|
①口①口
口口口②

口③③口
③口口口
⑥口⑥④ |③-④-|
口口⑤口 |⑤-⑥-|
15
①②口③ |--①-|
②④②口 |--②-|
口⑤口口 |--③-|
口⑥口① |④⑤⑥-|
16
⑥③③口 |①---|
③⑥②口 |②---|
①口①④ |③-④-|
口口⑤② |⑤-⑥-|
17
口④③① |--①-|
④口⑤③ |②---|
口口⑥口 |③-④-|
口②⑦口 |⑤⑥⑦-|
18
口口口② |①---|
口口口口 |②---|
口①口①
②口口口

口③③口
口口口③
④⑥口⑥ |③-④-|
口⑤口口 |⑤-⑥-|
19
③口②① |--①-|
口②④② |--②-|
口口⑤口 |--③-|
①口⑥口 |④⑤⑥-|
20
口③③⑥ |①---|
口②⑥③ |②---|
④①口① |③-④-|
②⑤口口 |⑤-⑥-|
21
①③④口 |--①-|
③⑤口④ |②---|
口⑥口② |③-④-|
口⑦口口 |⑤⑥⑦-|
22
②⑤口③ |①---|
⑥口④口 |②---|
①口①口 |③-④-|
口口口② |⑤-⑥-|
23
①口①口 |--①-|
口③④③ |②---|
②④②④ |③---|
口③④③ |④---|
24
⑥口②⑥ |--①-|
口③口④ |②-③-|
⑤口口口 |④-⑤-|
①口口口 |--⑥-|
25
⑤④④口 |①-②-|
①③③③ |--③-|
④②②④ |--④-|
①②②口 |--⑤-|
26
口口⑥⑤ |--①-|
②②⑤口 |②-③-|
口③口口 |④-⑤-|
①①④④ |--⑥-|
27
口①口口 |①-②-|
口④⑤④ |③-④-|
③口④② |----|
口④口④ |--⑤-|
28
口①口口 |①-②-|
②④口口 |③-④-|
口③口口
口口口口

口⑦⑤⑤
口口口口
口口⑥⑥ |⑤-⑥-|
口口口口 |--⑦-|
29
⑦口口⑦ |①-②-|
②口①④ |③-④-|
口③口口 |--⑤-|
⑥口⑤④ |⑥-⑦-|
30
口③③口 |①---|
口①口口 |--②-|
口口②② |③---|
④①口④ |④---|
31
①④口② |①---|
④①②口 |②---|
①①②② |③---|
口③③口 |④---|
32
口口口② |①---|
口口口口 |②---|
口①口口
②口口①

口口③口
口③口③
④⑥口口 |③-④-|
口⑤口⑥ |⑤-⑥-|
33
③②②① |--①-|
口口④② |--②-|
口口⑤口 |--③-|
①口⑥口 |④⑤⑥-|
34
口口口② |①---|
口口口口 |②---|
口①口①
②口口口

口口③口
口③⑥③
④⑥口口 |③-④-|
口⑤口口 |⑤-⑥-|
21
①③④口 |--①-|
③⑤口④ |②---|
口⑥口② |③-④-|
口⑦口口 |⑤⑥⑦-|
36
②口口口 |①---|
口口口口 |②---|
①口①口
口口口②

口③口口
③口③口
口口⑥④ |③-④-|
⑥口⑤口 |⑤-⑥-|
37
①②②③ |--①-|
②④口口 |--②-|
口⑤口口 |--③-|
口⑥口① |④⑤⑥-|
38
④③口④ |①---|
③口③口 |②---|
②⑤①口 |③---|
①口口② |④-⑤-|
39
口⑤②口 |①--②|
⑤③⑥② |--③-|
④⑥③① |④--⑤|
口口口口 |--⑥-|
40
口口口口 |①-②-|
口口口② |③-④-|
④口口口
①口③①

⑥口⑦⑦
⑧口口口
口口口⑤ |⑤-⑥-|
⑧口口口 |⑦-⑧-|
41
⑥口口⑤ |①--②|
口①①③ |--③-|
④③③③ |--④-|
口③②② |⑤-⑥-|
42
⑦⑦口⑥ |①-②-|
②口①⑧ |③-④-|
口⑤口口 |⑤-⑥-|
④口③⑧ |⑦-⑧-|
43
口⑤口④ |①--②|
①①③⑥ |--③-|
③③③⑥ |④---|
③②②口 |⑤-⑥-|
44
③口①⑦ |--①②|
⑥②④口 |③-④⑤|
⑨⑤⑨口 |⑥-⑦-|
⑥口⑧口 |⑧-⑨-|
45
口①②口 |①--②|
口④口⑥ |--③-|
口口口口 |--④-|
③口⑤③ |⑤-⑥-|
46
①④④口 |①---|
口口口口 |②-③-|
①口③③ |④---|
⑤②口⑤ |⑤---|
47
①④④② |①---|
口①②口 |②---|
①①②② |③---|
口③③口 |④---|
48
口口口口 |①---|
①━━< |----|
口口口② |②---|
口口口① |----|
49
口⑤口③ |①---|
口口②① |②---|
口口④口 |③--④|
口口口口 |--⑤-|
50
口口①口 |①---|
①口∧∨ |----|
口口口① |----|
口口口口 |----|
51
口口①口 |①---|
①口口口 |----|
∧∨口① |----|
口①口口 |----|
52
口口口∨ |①---|
①口①① |----|
口口∧口 |----|
口①口口 |----|
53
口①口口 |①---|
口┃①① |----|
口∧口口
口口口口

∨②口口
┃口口口
②口口口 |②---|
口口口口 |----|
54
口口口① |①---|
②口∨∧ |②---|
①口①口
口口口口

口口口口
口③④口
口口口口 |③---|
口口口口 |④---|
55
口①口① |①---|
∨∧口口 |②---|
①④①② |③---|
口口③口 |④---|
56
口①①< |①---|
口口>① |②---|
①口口口 |③---|
②③④口 |④---|
57
①①①口 |①---|
┃┃口①
∧∧口口
口口口口

②②口口
>━③口 |②---|
>━③② |③---|
口口口口

口口口口
口口④口
口口④口
口④口口 |④---|
58
口⑦口⑥ |①-②-|
①⑤⑧④ |③-④-|
┃③口② |⑤-⑥-|
∧口口口 |⑦-⑧-|
59
②口口口 |①-②-|
①⑥口⑤ |③-④-|
④⑧③⑦ |⑤-⑥-|
>━①口 |⑦-⑧-|
60
①③④② |①-②-|
┃⑤⑥口 |③-④-|
∧⑦⑧口 |⑤-⑥-|
口口①口 |⑦-⑧-|
61
①口口口 |①-②-|
②口口①
口口口┃
口口口∧

口③口口
口∨口③ |③-④-|
④┃口⑥ |⑤-⑥-|
口⑤口口

口口口口
口⑦口口
口口⑧口
口⑦口口 |⑦-⑧-|
62
②口③① |①-②-|
④⑧⑤┃ |③-④-|
⑥口⑦┃ |⑤-⑥-|
口口口∧ |⑦-⑧-|
63
①口②口 |①-②-|
③口④口 |③-④-|
口口口口
口口口口

⑧口口口
口⑦口口
⑤口⑥口 |⑤-⑥-|
口口口口 |⑦-⑧-|
64
口①口① |①---|
②口口② |----|
口①口① |②---|
口口口口 |----|
65
②口①② |①---|
口口①口 |----|
③口①③ |②---|
口口①口 |③---|
66
⑤口口⑩ |①-②③|
①⑦②⑥ |④-⑤-|
口③⑧口 |⑥-⑦⑧|
④①⑥⑨ |⑨-⑩-|
67
⑤口口⑩ |①-②③|
①⑦②⑥ |④-⑤-|
口③⑧口 |⑥-⑦⑧|
④①⑥⑨ |⑨-⑩-|
68
口②口口 |①-②-|
口口③口 |③-④-|
①④口①
口口口口

⑥口⑥口
口口口口
⑦口⑦口 |⑤-⑥-|
口口⑤口 |--⑦-|
69
口⑥口⑥ |①-②③|
⑨②③④ |④-⑤-|
口口口⑦ |⑥-⑦-|
⑧①⑧⑤ |⑧-⑨-|
70
①⑦②⑥ |①-②③|
口③⑧口 |④-⑤-|
④①⑥⑨ |⑥-⑦⑧|
⑩口口⑤ |⑨-⑩-|
71
①⑦②⑥ |①-②③|
口③⑧口 |④-⑤-|
④①⑥⑨ |⑥-⑦⑧|
⑩口口⑤ |⑨-⑩-|
72
③⑤⑤口 |①-②-|
①口口① |③-④-|
⑥口口⑥ |⑤-⑥-|
口②②④ |----|
73
②④④② |①---|
口①①口 |②---|
③①①③ |③---|
口①①口 |④---|
74
⑤口口⑩ |①-②③|
①⑦②⑥ |④-⑤-|
口③⑧口 |⑥-⑦⑧|
④①⑥⑨ |⑨-⑩-|
75
⑤口口⑩ |①-②③|
①⑦②⑥ |④-⑤-|
口③⑧口 |⑥-⑦⑧|
④①⑥⑨ |⑨-⑩-|
76
口②口口 |①-②-|
口口③口 |③-④-|
①④口①
口口口口

⑥口⑥口
口口口口
⑦口⑦口 |⑤-⑥-|
口口⑤口 |--⑦-|
69
口⑥口⑥ |①-②③|
⑨②③④ |④-⑤-|
口口口⑦ |⑥-⑦-|
⑧①⑧⑤ |⑧-⑨-|
78
③④①④ |①-②-|
口②口口 |③---|
③⑤①⑤ |④---|
口口口口 |⑤---|
79
口口口口 |①---|
①④③② |②---|
口口口口 |③---|
①④③② |④---|
80
∨②②口 |①---|
①口口口 |②---|
∨口口口
①口口口

口口口口
③④④口
口③③口 |③---|
③口口口 |④---|
81
口口口① |①---|
口口口┃
口口口∧
口口口口

③②口②
┃口口口 |②---|
∧口口口 |③---|
口口口口

④口口口
口口口口
口④④口
口口口口 |④---|
82
口口口口 |①-②-|
③⑤④② |③-④-|
⑦口⑧⑥ |⑤-⑥-|
>①①< |⑦-⑧-|
83
口口口口 |①-②-|
③⑤④② |③-④-|
⑦①⑧⑥ |⑤-⑥-|
口⑦⑦口 |⑦-⑧-|
84
∨口口∨ |①---|
┃口口┃
┃口口┃
①口口①

口口口口
⑥⑤④③ |--②-|
⑩⑨⑧⑦ |③④⑤⑥|
②口口② |⑦⑧⑨⑩|
85
①③③④ |①---|
口口⑤口 |②---|
口⑥口口 |③---|
⑦③③② |④⑤⑥⑦----|
86
②口口口 |①---|
口口口口 |②---|
①口①口
口口口②

口③③口
③口口口
⑥口⑥④ |③-④-|
口口⑤口 |⑤-⑥-|
87
①②口③ |--①-|
②④②口 |--②-|
口⑤口口 |--③-|
口⑥口① |④⑤⑥-|
88
⑥③③口 |①---|
③⑥②口 |②---|
①口①④ |③-④-|
口口⑤② |⑤-⑥-|
89
口④③① |--①-|
④口⑤③ |②---|
口口⑥口 |③-④-|
口②⑦口 |⑤⑥⑦-|
90
口口口② |①---|
口口口口 |②---|
口①口①
②口口口

口③③口
口口口③
④⑥口⑥ |③-④-|
口⑤口口 |⑤-⑥-|
91
③口②① |--①-|
口②④② |--②-|
口口⑤口 |--③-|
①口⑥口 |④⑤⑥-|
92
口③③⑥ |①---|
口②⑥③ |②---|
④①口① |③-④-|
②⑤口口 |⑤-⑥-|
93
①③④口 |--①-|
③⑤口④ |②---|
口⑥口② |③-④-|
口⑦口口 |⑤⑥⑦-|
94
∨⑤口③ |①---|
┃口④⑥ |②---|
┃口口② |③-④-|
①口②口 |⑤-⑥-|
95
口口①口 |--①-|
口④③④ |②---|
口③②③ |③---|
③④③④ |④---|
最終更新:2019年12月04日 18:54