アットウィキロゴ
Radius
BEMANI Sound Team "Sota F."

BASIC

Level: 4
BPM: 150
Notes: 229

1
口口口口 |----|
口口口口 |----|
口口口口 |----|
口口口口 |----|
2
②口①口 |①---|
口口口口 |----|
口口口口 |②---|
口口口口 |----|
3
口口口口 |①---|
②口①口 |----|
口口口口 |②---|
口口口口 |----|
4
口口口口 |①---|
口口口口 |----|
②口①口 |②---|
口口口口 |----|
5
口口口口 |①---|
口①①口 |--②-|
口②②口 |----|
口③③口 |③---|
6
口口口口 |①---|
口①口② |----|
口口口口 |②---|
口口口口 |----|
7
口口口口 |①---|
口口口口 |----|
口①口② |②---|
口口口口 |----|
8
口口口口 |①---|
口口口口 |----|
口口口口 |②---|
口①口② |----|
9
口口口口 |①---|
口①①口 |--②-|
口②②口 |----|
口③③口 |③---|
10
口口口口 |①---|
口口口口 |----|
①口口口 |②---|
口②口口 |----|
11
口口口口 |①---|
口口口口 |----|
口口口② |②---|
口口①口 |----|
12
口口口口 |①---|
口②①口 |----|
口口口口 |②---|
口口口口 |----|
13
口口①口 |①---|
口②口口 |②---|
口口③口 |③---|
口④口口 |④---|
14
口口口口 |①---|
口口口口 |----|
①②口口 |②---|
口口口口 |----|
15
口口口口 |①---|
口口口口 |----|
口口①② |②---|
口口口口 |----|
16
口口口口 |①---|
口口②① |----|
口口口口 |②---|
口口口口 |----|
17
口③③口 |①---|
②①口口 |----|
口口口口 |②---|
口口口口 |③---|
18
①口口口 |①---|
口②口口 |----|
口口口口 |②---|
口口口口 |----|
19
口口口口 |①---|
口口口口 |----|
口口①口 |②---|
口口口② |----|
20
口口口① |①---|
口口②口 |----|
口口口口 |②---|
口口口口 |----|
21
口口口口 |①---|
③口口口 |----|
口①口口 |②---|
②口口口 |③---|
22
口①口口 |①---|
口②口口 |----|
口口口口 |②---|
口口口口 |----|
23
口口口口 |①---|
口口口口 |----|
口①口口 |②---|
口②口口 |----|
24
口口口口 |①---|
口口口口 |----|
口口②口 |②---|
口口①口 |----|
25
③口②口 |①---|
口口①口 |----|
口口口口 |②---|
口口口口 |③---|
26
口①口口 |①---|
口口口口 |----|
口②口口 |②---|
口口口口 |----|
27
口口①口 |①---|
口口口口 |----|
口口②口 |②---|
口口口口 |----|
28
口口口① |①---|
口口口口 |----|
口口口② |②---|
口口口口 |----|
29
②口③口 |①---|
口①①口 |----|
口口口口 |②---|
口口口口 |③---|
30
口口口口 |①---|
口①口口 |----|
口口口口 |②---|
口②口口 |----|
31
口口口口 |①---|
口口①口 |----|
口口口口 |②---|
口口②口 |----|
32
口口口口 |①---|
口口口① |----|
口口口口 |②---|
口口口② |----|
33
口口口口 |①---|
口口口口 |②---|
④③②① |③---|
口口口口 |④---|
34
口口①口 |①---|
口口②口 |②---|
口口③口 |③---|
口口口口 |----|
35
①①口口 |①---|
口口口口 |----|
②②口口 |②---|
口口口口 |----|
36
口口口口 |①---|
口①①口 |----|
口口口口 |②---|
口②②口 |----|
37
口口口口 |①---|
②口口② |----|
口①①口 |----|
口口口口 |②---|
38
口①口口 |①---|
口②口口 |②---|
口③口口 |③---|
口口口口 |----|
39
口口①① |①---|
口口口口 |----|
口口②② |②---|
口口口口 |----|
40
口口口口 |①---|
口①①口 |----|
口口口口 |②---|
口②②口 |----|
41
口口口口 |①---|
②口口② |----|
口①①口 |----|
口口口口 |②---|
42
①口④口 |①---|
口②口口 |②---|
口口③口 |③---|
口口口口 |④---|
43
口④口① |①---|
口口②口 |②---|
口③口口 |③---|
口口口口 |④---|
44
①口④口 |①---|
口②口口 |②---|
口口③口 |③---|
口口口口 |④---|
45
口④口① |①---|
口口②口 |②---|
口③口口 |③---|
口口口口 |④---|
46
口口①口 |①---|
口②口口 |--②-|
口口③口 |----|
口口口口 |③---|
47
口口口口 |--①-|
口口口口 |----|
③③②② |②---|
口①口口 |③---|
48
口口口口 |①---|
口①①口 |----|
口②②口 |②---|
口口口口 |----|
49
口口口口 |①---|
④③②① |②---|
口口口口 |③---|
口口口口 |④---|
50
口口①口 |①---|
口口②口 |②---|
口口③口 |③---|
口口口口 |----|
51
口口口口 |①---|
①①口口 |----|
口口口口 |②---|
②②口口 |----|
52
口口口口 |①---|
口口口① |②---|
口口②口 |③---|
口③口口 |----|
53
口①①口 |①---|
口②②口 |--②-|
口③③口 |----|
口口口口 |③---|
54
口①口口 |①---|
口②口口 |②---|
口③口口 |③---|
口口口口 |----|
55
口口口口 |①---|
口口①① |----|
口口口口 |②---|
口口②② |----|
56
口口口口 |①---|
①口口口 |②---|
口②口口 |③---|
口口③口 |----|
57
口口口口 |①---|
①口口① |--②-|
②口口② |----|
③口口③ |③---|
58
口口①口 |①---|
口口②口 |②---|
口口③口 |③---|
口口口口 |----|
59
口口口口 |①---|
①①口口 |----|
口口口口 |②---|
②②口口 |----|
60
口口口口 |①---|
口口口① |②---|
口口②口 |③---|
口③口口 |----|
61
口①①口 |①---|
口②②口 |--②-|
口③③口 |----|
口口口口 |③---|
62
口①口口 |①---|
口②口口 |②---|
口③口口 |③---|
口口口口 |----|
63
口①①口 |①---|
口②②口 |②---|
口③③口 |③---|
口④④口 |④---|
64
口口口口 |①---|
口口①① |----|
口口口口 |②---|
口口②② |----|
65
口口口口 |①---|
①口口① |--②-|
②口口② |----|
③口口③ |③---|
66
口口口口 |①---|
口①①口 |----|
口③③口 |②---|
口②②口 |③---|
67
口口口口 |①---|
口口口口 |----|
①②口口 |②---|
口口口口 |----|
68
口口口口 |①---|
口口口口 |----|
口口①② |②---|
口口口口 |----|
69
口口口口 |①---|
口口②① |----|
口口口口 |②---|
口口口口 |----|
70
口③③口 |①---|
②①口口 |----|
口口口口 |②---|
口口口口 |③---|

accuracy: 100%
最終更新:2022年05月04日 03:56