アットウィキロゴ
Radius
BEMANI Sound Team "Sota F."

ADVANCED

Level: 7
BPM: 150
Notes: 535

1
口口口口 |----|
口口口口 |----|
口口口口 |----|
口口口口 |----|
2
口口①口 |①---|
②⑤口④ |--②-|
口③①口 |③--④|
口口口口 |-⑤--|
3
②口①① |①---|
口④口口 |②---|
②口③③ |③---|
口④口口 |④---|
4
口②口① |①--②|
④口口口 |-③--|
口口③口 |④---|
口⑤口口 |--⑤-|
5
③③①① |①--②|
口⑤⑤口 |--③-|
④②④② |-④--|
口口口口 |⑤---|
6
口口口① |①---|
②⑤口④ |--②-|
口③口口 |③--④|
口口口口 |-⑤--|
7
②③①① |①---|
口口③口 |②---|
②④口④ |③---|
口口口口 |④---|
8
口口②口 |①--②|
①④④口 |-③--|
⑤口③口 |④---|
口口口口 |--⑤-|
9
③③①① |①--②|
口⑤⑤口 |--③-|
④④②② |-④--|
口口口口 |⑤---|
10
口口口① |①---|
口口口口 |②---|
③④⑤口 |③-④-|
口口②口 |⑤---|
11
①口口口 |①---|
口口口口 |②---|
口⑤④③ |③-④-|
口②口口 |⑤---|
12
口口口① |①---|
口口口口 |②---|
③④⑤口 |③-④-|
口口②口 |⑤---|
13
②口①口 |①-②-|
④口③口 |③-④-|
口口口口
口口口口

口口⑦口
口口口⑦
⑥口⑤口 |⑤-⑥-|
口口口口 |⑦---|
14
①①口③ |①---|
口口④口 |②-③④|
口②②口
口口口口

口⑥⑥口
⑤⑤口口
口口口口 |----|
口口口口 |⑤--⑥|
15
①口口口 |----|
口口口② |①-②③|
口⑤③口 |--④-|
④口⑥口 |⑤-⑥-|
16
⑤⑤①① |①--②|
口③⑥⑥ |-③④-|
⑦⑦④口 |⑤-⑥-|
口②⑧⑧ |⑦-⑧-|
17
口口口② |①---|
⑤③④⑤ |②---|
口④③口 |③-④-|
①口口口 |⑤---|
18
口①口② |①--②|
⑥③口口 |-③-④|
①口口④ |--⑤-|
口⑤⑤口 |⑥---|
19
口④②口 |①--②|
口口口口 |--③-|
⑤③①口 |-④--|
口⑥口口 |⑤-⑥-|
20
②口①口 |①--②|
口口③⑥ |-③-④|
④口口① |--⑤-|
口⑤⑤口 |⑥---|
21
口①③口 |①--②|
口口口口 |--③-|
口②④⑤ |-④--|
口口⑥口 |⑤-⑥-|
22
口①口② |①--②|
⑥③口口 |-③-④|
①口口④ |--⑤-|
口⑤⑤口 |⑥---|
23
口④②口 |①--②|
口口口口 |--③-|
⑤③①口 |-④--|
口⑥口口 |⑤-⑥-|
24
②口①口 |①--②|
口口③⑥ |-③-④|
④口口① |--⑤-|
口⑤⑤口 |⑥---|
25
口①③口 |①--②|
口口口口 |--③-|
口②④⑤ |-④--|
口口⑥口 |⑤-⑥-|
26
②口口口 |①---|
③①①口 |-②③④|
④口口口 |----|
口口口口 |----|
27
口口口① |①-②-|
口②⑤⑤ |③-④-|
口口口③ |--⑤-|
口④⑥⑥ |⑥---|
28
①口⑦⑥ |①--②|
口②⑤④ |--③-|
口口③口 |④-⑤-|
口口口口 |⑥-⑦-|
29
口口口口 |----|
口口口口 |--①-|
口口口口 |----|
口①①口 |----|
30
口口口② |①---|
口①①③ |②③④-|
口口口④ |----|
口口口口 |----|
31
①口口口 |①-②-|
⑤⑤②口 |③-④-|
③口口口 |--⑤-|
⑥⑥④口 |⑥---|
32
⑥⑦口① |①--②|
④⑤②口 |--③-|
口③口口 |④-⑤-|
口口口口 |⑥-⑦-|
33
口口①① |----|
③口口③ |①-②-|
口口②② |----|
口口口口 |③---|
34
①①口口 |①---|
口口口口 |②---|
⑥⑤④③ |③-④-|
口②②口 |⑤-⑥-|
35
①口②① |----|
口③口口 |①---|
口口④口 |②-③-|
口⑤口口 |④-⑤-|
36
口②②口 |----|
口③③口 |①---|
①口口① |----|
口口口口 |②-③-|
37
口口口口 |----|
口口口口 |----|
①①①① |----|
口口口口 |①---|
38
口口①① |①---|
口口口口 |②---|
③④⑤⑥ |③-④-|
口②②口 |⑤-⑥-|
39
①②口① |----|
口口③口 |①---|
口④口口 |②-③-|
口口⑤口 |④-⑤-|
40
口口口口 |----|
②口口② |①---|
①口口① |----|
口口口口 |②---|
41
⑤④③② |①---|
口①①口 |②③④⑤|
⑥①①⑥ |----|
口口口口 |⑥---|
42
⑦⑤⑦① |①-②③|
口②③④ |④-⑤-|
口⑥⑨⑧ |⑥--⑦|
口口口口 |-⑧⑨-|
43
④⑥⑥口 |--①②|
①②③口 |③-④-|
⑤口⑧⑦ |⑤--⑥|
口口口口 |-⑦⑧-|
44
⑦⑦口① |①-②③|
⑤口⑥口 |④-⑤-|
口口⑨⑧ |⑥--⑦|
②③④口 |-⑧⑨-|
45
口⑦①口 |①-②-|
⑦口口⑥ |③④⑤-|
②口口口 |⑥--⑦|
口⑤④③ |----|
46
②口④④ |①-②-|
⑧⑤⑦⑦ |③-④-|
③口①① |⑤-⑥-|
口⑥口口 |⑦-⑧-|
47
口③⑦⑦ |①-②-|
⑥⑧口口 |③-④-|
口④⑤⑤ |⑤-⑥-|
①口②② |⑦-⑧-|
48
口①口口 |①②③④|
⑥口②⑤ |-⑤-⑥|
⑧③口⑦ |-⑦-⑧|
口⑨④口 |⑨---|
49
口④③③ |①②-③|
口口⑤① |-④⑤⑥|
⑦⑥②⑦ |----|
口口口口 |⑦---|
50
口口口⑥ |①-②-|
①①口口 |--③-|
口⑤④⑦ |④⑤-⑥|
③口②口 |-⑦--|
51
①①口口 |①---|
口口②② |②---|
③③口口 |③---|
口口④④ |④---|
52
①②口口 |①②-③|
⑦⑥⑤④ |-④⑤⑥|
口③口口 |⑦---|
口⑧⑧口 |--⑧-|
53
②②①① |①--②|
口口口口 |--③-|
口口③③
口口口口

口口⑤口
口⑤口口
④④口口 |-④--|
口口口口 |⑤---|
54
口口口⑥ |①---|
③口①① |②-③-|
口⑤④⑦ |④⑤-⑥|
口②②口 |-⑦--|
55
①①③③ |①---|
④④②② |②---|
口口口口 |③---|
口口口口 |④---|
56
口口口③ |①②-③|
口口⑧口 |-④⑤⑥|
口口②① |⑦---|
④⑤⑥⑦ |--⑧-|
57
①①③③ |①--②|
口口口口 |--③-|
②②口口
口口口口

口⑤口口
口口⑤口
口口④④ |-④--|
口口口口 |⑤---|
58
口口口⑥ |①-②-|
①①口口 |--③-|
口⑤④⑦ |④⑤-⑥|
③口②口 |-⑦--|
59
①①口口 |①---|
口口②② |②---|
③③口口 |③---|
口口④④ |④---|
60
①②口口 |①②-③|
⑦⑥⑤④ |-④⑤⑥|
口③口口 |⑦---|
口⑧⑧口 |⑧---|
61
②②①① |①--②|
口口口口 |--③-|
口口③③
口口口口

口口⑤口
口⑤口口
④④口口 |-④--|
口口口口 |⑤---|
62
口口口⑥ |①---|
③口①① |②-③-|
口⑤④⑦ |④⑤-⑥|
口②②口 |-⑦--|
63
①①①口 |①---|
口②②② |②---|
③③③口 |③---|
口④④④ |④---|
64
③口口口 |①②-③|
口口②① |-④⑤⑥|
④⑤⑥⑦ |⑦---|
口口口口 |----|
65
③③①① |①--②|
口⑤⑤口 |--③-|
④④②② |-④--|
口口口口 |⑤---|
66
②口口口 |①---|
口口③① |②---|
口④口口 |③-④-|
口口⑤口 |⑤---|
67
口口口④ |①-②-|
口①⑤口 |③-④⑤|
口口②口
口③口口

口⑦⑦口
⑥⑥口口
口口口口 |----|
口口口口 |⑥--⑦|
68
①口口口 |----|
口口口② |①-②③|
口⑤③口 |--④-|
④口⑥口 |⑤-⑥-|
69
⑤⑤①① |①--②|
口③⑥⑥ |-③④-|
⑦⑦④口 |⑤-⑥-|
口②⑧⑧ |⑦-⑧-|
70
口口口② |①---|
⑤③④⑤ |②---|
口④③口 |③-④-|
①口口口 |⑤---|

accuracy: 100%
最終更新:2022年05月04日 04:07