アットウィキロゴ
Radius
BEMANI Sound Team "Sota F."

EXTREME

Level: 9.7
BPM: 150
Notes: 786

1
口口口口 |----|
口口口口 |----|
口口口口 |----|
口口口口 |----|
2
口⑧①⑦ |①--②|
⑤⑥口① |--③④|
③④⑨口 |⑤⑥-⑦|
口口②口 |-⑧⑨-|
3
②口口口 |①---|
口口②口 |②---|
口口口口
口①口①

口口口口
③口口③
口④④口 |③---|
口④④口 |④---|
4
④口③③ |①②-③|
⑤口①口 |-④⑤⑥|
⑥口口口
口口口②

口口口口
口口口⑨
口口⑩口 |⑦---|
⑦⑧口⑧ |⑧-⑨⑩|
5
口①口② |①--②|
③口口口 |--③-|
口①口②
③口口口

口⑤⑤口
口口④口
口⑤⑤口 |-④--|
口口④口 |⑤---|
6
①⑦口⑦ |①--②|
口①④③ |--③④|
口⑧⑥⑤ |⑤⑥-⑦|
口②⑨口 |-⑧⑨-|
7
②口③③ |①---|
口口②③ |②---|
①口口口 |③---|
①④④口 |④---|
8
③③口④ |①②-③|
口口口⑤ |-④⑤⑥|
口①口⑥
②口口口

口口口口
⑨口口口
口⑩口口 |⑦---|
⑧口⑧⑦ |⑧-⑨⑩|
9
②口①口 |①--②|
口③③口 |--③-|
②口①口
口口口口

口⑤⑤口
④口口④
口口口口 |-④--|
口⑤⑤口 |⑤---|
10
口口口② |①-②-|
口口⑤④ |③-④⑤|
③①①口
口口口口

口口⑧口
⑦⑥口口
口口⑨⑧ |⑥⑦-⑧|
口口⑩口 |-⑨⑩-|
11
①①口口 |①-②-|
④口口② |③-④⑤|
⑤③口口
口口口口

口⑦⑨⑥
口⑧口口
口口⑨⑥ |-⑥-⑦|
口口口口 |⑧-⑨-|
12
③口口口 |①---|
④⑥②② |②-③④|
口⑦口⑤ |-⑤-⑥|
①①⑧⑧ |⑦-⑧-|
13
口口⑦① |①②③④|
⑥口口③ |⑤⑥⑦⑧|
④口口⑤
②⑧口口

⑬口口⑬
口⑫⑨口
口⑩⑪口 |⑨⑩⑪⑫|
口口口口 |⑬---|
14
口③口口 |①-②-|
口口④① |③④⑤⑥|
口⑤口口
口②⑥口

⑩口⑩口
⑦口口⑧
⑦口⑨口 |--⑦-|
口口口口 |⑧⑨-⑩|
15
口口⑥③ |--①-|
⑤⑦④⑥ |②-③④|
⑧①⑦② |-⑤⑥-|
口⑧口口 |⑦-⑧-|
16
①②⑤④ |①②-③|
⑥口⑨⑨ |-④⑤-|
口⑦口③ |⑥-⑦-|
口口⑧口 |⑧-⑨-|
17
①口口② |①---|
③④口口 |②-③④|
①口口②
口口口口

⑧⑧口口
口口口⑦
⑧⑧口口 |⑤⑥-⑦|
口⑤⑥口 |⑧---|
18
口⑤④① |①-②③|
口⑥口⑦ |-④-⑤|
口⑤④⑧ |--⑥-|
②③口⑨ |⑦⑧⑨-|
19
④口⑧⑩ |①②③④|
③口⑦⑪ |--⑤⑥|
②口⑥⑫ |⑦⑧-⑨|
①⑨⑤口 |⑩⑪⑫-|
20
①④⑤口 |①-②③|
⑦口⑥口 |-④-⑤|
口④⑤口 |--⑥-|
口口③② |⑦---|
21
口④口① |①②③-|
⑨⑤⑧② |--④⑤|
⑨⑥⑧③ |⑥⑦--|
口⑦口口 |⑧-⑨-|
22
①口③② |①-②③|
口口口口 |-④-⑤|
口⑤口⑤
口④口④

⑦⑧⑨口
口口口口
口口⑥口 |--⑥-|
口口口口 |⑦⑧⑨-|
23
口口⑨口 |①②③④|
⑤⑥⑦⑧ |--⑤⑥|
⑫⑪⑩口 |⑦⑧-⑨|
①②③④ |⑩⑪⑫-|
24
②③⑥① |①-②③|
口⑦⑤④ |-④-⑤|
口口⑧口 |----|
口⑨⑤④ |⑥⑦⑧⑨|
25
①口口⑤ |①②③④|
②口口⑥ |--⑤⑥|
③口口口
④口口口

⑨口⑨口
⑩口⑩口
口口口⑦ |⑦⑧--|
口口口⑧ |⑨-⑩-|
26
口②口口 |①--②|
口口口③ |-③④⑤|
口⑥④⑥ |----|
口⑤①口 |⑥---|
27
②①④③ |①-②-|
①②③④ |③-④-|
⑤口口⑤ |--⑤-|
口⑥⑥口 |⑥---|
28
①口口③ |①--②|
⑥③①⑦ |--③-|
④②口⑤ |④-⑤-|
口口口② |⑥-⑦-|
29
口②②口 |----|
口口口口 |①-②-|
口①①口 |----|
口③③口 |③---|
30
口⑥口口 |①-②③|
⑦口⑤① |④⑤⑥⑦|
②③口④
口口口口

⑧口⑧口
口口口口
⑨⑩口口 |----|
口口口口 |⑧-⑨⑩|
31
口⑥⑥① |①-②-|
④口②③ |③-④-|
⑦⑦①⑤ |⑤-⑥-|
口④③② |⑦---|
32
③口口① |①--②|
⑦①③⑥ |--③-|
⑤口②④ |④-⑤-|
②口口口 |⑥-⑦-|
33
口①①口 |----|
⑥⑤④③ |①-②-|
⑩⑨⑧⑦ |③④⑤⑥|
口②②口 |⑦⑧⑨⑩|
34
口①口① |①---|
口口口口 |②---|
口口口口
口②口②

⑥⑥口口
口口③口
口⑤口口 |③-④-|
④口口口 |⑤-⑥-|
35
口口②口 |----|
口③口口 |①---|
口口④口 |②-③-|
口①①⑤ |④-⑤-|
36
口④口⑤ |①---|
口④②⑤ |②---|
①口口② |③---|
③③口口 |④-⑤-|
37
①口①口 |----|
口⑥⑥口 |①---|
②③④⑤ |②③④⑤|
口⑥⑥口 |⑥---|
38
④①⑥① |①---|
口⑤口口 |②---|
②②口③ |③-④-|
口口口口 |⑤-⑥-|
39
⑤口口口 |----|
口④口② |①---|
口口③口 |②-③-|
口①①口 |④-⑤-|
40
口口①① |①---|
④口⑤口 |②---|
②口口③ |③---|
④②⑤口 |④-⑤-|
41
口口③③ |①---|
口②口口 |②③④⑤|
④①⑤⑤
口口口口

⑥⑥口口
⑥口口口
口⑥口口 |----|
⑥⑥口口 |⑥---|
42
口口①① |①-②③|
口口⑦⑥ |④⑤⑥⑦|
口口⑤④
口口③②

口口口⑨
⑩⑧口口
口⑪口口 |⑧--⑨|
口口⑫口 |-⑩⑪⑫|
43
口口③口 |--①②|
口④②① |③④⑤⑥|
口口⑤口
口⑥口口

口口口⑦
⑧口口⑨
口口口⑩ |⑦--⑧|
口口口⑪ |-⑨⑩⑪|
44
①①口口 |①-②③|
⑥⑦口口 |④⑤⑥⑦|
④⑤口口
②③口口

⑨口口口
口口⑧口
⑫口口口 |⑧--⑨|
⑩⑪口口 |-⑩⑪⑫|
45
口口①① |①-②③|
口口⑦⑥ |④⑤⑥⑦|
口口⑤④
口口③②

⑨口口⑨
口⑧口口
口口口口 |⑧--⑨|
口口口口 |----|
46
⑧⑭①⑨ |①②③④|
⑫④⑪⑤ |⑤⑥⑦⑧|
②⑯⑦⑮ |⑨⑩⑪⑫|
⑥⑩⑬③ |⑬⑭⑮⑯|
47
⑧口①口 |①②③④|
口④⑦③ |⑤⑥⑦⑧|
②口口口
⑥口口⑤

口⑫⑮⑬
⑯口口口
口⑭口⑪ |⑨⑩⑪⑫|
口⑩⑨口 |⑬⑭⑮⑯|
48
⑤口口口 |①②③④|
口②口④ |-⑤-⑥|
①口③口
口⑥口口

口口⑦口
口口口口
⑨⑩⑪⑫ |-⑦-⑧|
口口口⑧ |⑨⑩⑪⑫|
49
口①口② |①②-③|
④①⑥② |-④⑤⑥|
口口口口
③⑤③口

口口口⑦
口⑦口口
口⑦⑦口 |----|
口口口口 |⑦---|
50
口②①口 |①-②-|
口口②① |③-④⑤|
④⑤口口
口口③③

口⑨口⑧
⑥⑦口口
口口⑩口 |⑥⑦-⑧|
口口口口 |-⑨⑩-|
51
②口②口 |①---|
口口口口 |②---|
口口口②
口①①①

口③口口
口口口③
③④④口 |③---|
口④④口 |④---|
52
④口③③ |①②-③|
⑤口①口 |-④⑤⑥|
⑥口口口
口口口②

口口口口
口口口⑨
口口⑩口 |⑦---|
⑦⑧口⑧ |⑧-⑨⑩|
53
口①口② |①--②|
③口口口 |--③-|
口①口②
③口口口

口⑤⑤口
口口④口
口⑤⑤口 |-④--|
口口④口 |⑤---|
54
①⑦口⑦ |①---|
口①④③ |②-③④|
口⑧⑥⑤ |⑤⑥-⑦|
②②⑨口 |-⑧⑨-|
55
②口口口 |①---|
口口口口 |②---|
①口②②
①①口口

口口③③
口口④③
口口口口 |③---|
口④口④ |④---|
56
③③口④ |①②-③|
口口口⑤ |-④⑤⑥|
口①口⑥
②口口口

口口口口
⑨口口口
口⑩口口 |⑦---|
⑧口⑧⑦ |⑧-⑨⑩|
57
②口①口 |①--②|
口③③口 |--③-|
②口①口
口口口口

口口口口
④口口④
口⑤⑤口 |-④--|
口⑤⑤口 |⑤---|
58
①口②② |①-②-|
③③口口 |③-④⑤|
①口⑤④
口口口口

⑧口⑨口
口口⑦⑥
口⑩口口 |⑥⑦-⑧|
口口口口 |-⑨⑩-|
59
口口口② |①---|
口口②口 |②---|
②口口口
①①①口

口口③口
③口口口
口④④③ |③---|
口④④口 |④---|
60
③③口④ |①②-③|
⑨①口⑤ |-④⑤⑥|
②⑩口⑥ |⑦---|
⑧口⑧⑦ |⑧-⑨⑩|
61
②口①口 |①--②|
口口口③ |--③-|
②口①口
口口口③

口⑤⑤口
口④口口
口⑤⑤口 |-④--|
口④口口 |⑤---|
62
⑦口⑦① |①---|
③④①口 |②-③④|
⑤⑥⑧口 |⑤⑥-⑦|
口⑨②② |-⑧⑨-|
63
口⑤⑩⑦ |①-②③|
②⑧④① |④-⑤⑥|
口⑥⑦⑩ |⑦-⑧⑨|
③⑨①④ |⑩---|
64
④口口口 |①②-③|
⑤口②① |-④⑤⑥|
⑥口口口
口口③口

口口口口
口口口⑨
口口⑩口 |⑦---|
⑦⑧口⑧ |⑧-⑨⑩|
65
口①口② |①--②|
口③③口 |--③-|
口①口②
口口口口

口⑤⑤口
④口口④
口口口口 |-④--|
口⑤⑤口 |⑤---|
66
②口口② |①---|
口④③口 |②-③④|
①口口①
口口口口

口口口口
口口口⑦
⑧⑥⑤口 |⑤⑥-⑦|
口⑧口口 |⑧---|
67
口口③口 |①-②-|
①④口口 |③④⑤⑥|
口口⑤口
口⑥②口

口⑩口⑩
⑧口口⑦
口⑨口⑦ |--⑦-|
口口口口 |⑧⑨-⑩|
68
③⑥口口 |--①-|
⑥④⑦⑤ |②-③④|
②⑦①⑧ |-⑤⑥-|
口口⑧口 |⑦-⑧-|
69
④⑤②① |①②-③|
⑨⑨口⑥ |-④⑤-|
③口⑦口 |⑥-⑦-|
口⑧口口 |⑧-⑨-|
70
①口口⑤ |①-②③|
口口②⑥ |④-⑤⑥|
①③口口
④口口口

口⑩⑩口
⑨⑩口口
⑨口⑩⑦ |⑦⑧-⑨|
口⑩⑩⑧ |⑩---|

accuracy: 100%
最終更新:2022年05月04日 04:23