アットウィキロゴ
ゴーストルール
DECO*27

ADVANCED

Level: 7
BPM: 210
Notes: 539

1
口口口口 |----|
口口口口 |----|
口口口口 |----|
口口口口 |----|
2
口口口口 |①---|
口①③① |--②-|
口口口口 |----|
口口②口 |③---|
3
口口口口 |--①-|
口口口口 |----|
①②②口 |②---|
口口口口 |----|
4
口口口口 |①---|
①③①口 |--②-|
口口口口 |----|
口②口口 |③---|
5
口口口口 |--①-|
口口口口 |----|
口②②① |②---|
口口口口 |----|
6
口口①① |①---|
口口口口 |----|
口口口口 |②---|
②②口口 |----|
7
口口口② |①---|
口①口口 |----|
口口②口 |②---|
口口口① |----|
8
①①口口 |①---|
口口口口 |----|
口口口口 |②---|
口口②② |----|
9
②口口口 |①---|
口口①口 |----|
口②口口 |②---|
①口口口 |----|
10
口口口口 |----|
口口①口 |①---|
口②口口 |②---|
口④③口 |③-④-|
11
①口口口 |--①-|
口②口④ |②-③-|
口口③口 |----|
口口口口 |--④-|
12
口③⑤⑤ |①---|
③口①口 |②-③-|
口②④口 |--④-|
口口口口 |--⑤-|
13
口口口口 |--①-|
口①②③ |②-③-|
口口口口 |----|
口口口口 |----|
14
口③③口 |--①-|
口口口口 |②---|
①②口④ |③---|
口口⑤口 |④-⑤-|
15
①口口口 |--①-|
口②口口 |②-③-|
④口③口 |----|
口口口口 |--④-|
16
口③①① |①---|
口口口⑤ |②-③-|
口④口② |--④-|
口口口口 |--⑤-|
17
④口口口 |①-②-|
③②①口 |③-④-|
口口口口 |----|
口口口口 |----|
18
③口①① |----|
口④口口 |①---|
②②口口 |②---|
口口口口 |③-④-|
19
口口口口 |--①-|
④口口① |②-③-|
口口②口 |----|
口③口口 |--④-|
20
③③②⑤ |①---|
口①⑤② |②-③-|
口口④④ |--④-|
口口口口 |--⑤-|
21
口口口口 |--①-|
①口口口 |②-③-|
口②口口 |----|
口口③口 |----|
22
③口口④ |--①-|
③口⑤口 |②---|
口口②① |③---|
口口口口 |④-⑤-|
23
口口口口 |--①-|
口口口口 |②-③-|
口②口④ |----|
①口③口 |--④-|
24
②②口口 |①---|
口口③口 |②-③-|
⑥④①口 |④-⑤-|
⑤口口口 |--⑥-|
25
口口④口 |①-②-|
口①口③ |③-④-|
口口②口 |----|
口⑤⑤口 |⑤---|
26
口口口② |①---|
口①①口 |----|
口口口口 |②---|
口口口口 |----|
27
①口②口 |①---|
口③口② |②---|
③口④口 |③---|
口口口④ |④---|
28
②口②口 |①---|
口口口口 |----|
口口口口 |②---|
口①口口 |----|
29
口口口口 |①---|
①口①口 |----|
②口②口 |②---|
口口口口 |----|
30
②口口口 |①---|
口①①口 |----|
口口口口 |②---|
口口口口 |----|
31
口②口① |①---|
②口③口 |②---|
口④口③ |③---|
④口口口 |④---|
32
口②口② |①---|
口口口口 |----|
口口口口 |②---|
口口①口 |----|
33
口口口口 |①---|
口①口① |----|
口②口② |②---|
口口口口 |----|
34
口②口口 |①---|
口口口口 |--②-|
①口③口 |----|
口口口口 |③---|
35
口口口① |--①-|
口②②口 |----|
口口口口 |②---|
口口口口 |----|
36
口①①口 |①---|
③口口⑥ |②---|
口②②口 |③-④-|
口④⑤口 |⑤-⑥-|
37
①①口② |①---|
④口③口 |②-③-|
口口口口 |----|
④口口口 |④---|
38
口⑧口口 |①-②-|
口②口① |③-④-|
口④⑦③ |⑤-⑥-|
口⑥口⑤ |⑦-⑧-|
39
④口②④ |①---|
①口口③ |②-③-|
口口口口 |----|
口口口口 |④---|
40
口④⑤口 |①---|
口①①口 |②---|
③口口⑥ |③-④-|
口②②口 |⑤-⑥-|
41
④口口口 |①---|
①①口② |②-③-|
④口③口 |----|
口口口口 |④---|
42
口口口⑦ |①-②-|
⑥口口⑤ |③-④-|
口④口③ |⑤---|
口②口① |⑥-⑦-|
43
③②①口 |①-②-|
口④④口 |③-④-|
⑤口口⑤ |----|
口口口口 |⑤---|
44
②②④④ |①---|
口口口口 |②---|
口口口口 |③---|
①①③③ |④---|
45
口口口口 |①---|
①②③④ |②---|
①②③④ |③---|
口口口口 |④---|
46
①②口口 |①-②-|
③④口口 |③-④-|
⑤口⑦口 |⑤---|
口口口⑥ |⑥-⑦-|
47
口口口口 |①---|
口④④口 |②-③-|
口③口② |----|
口①口口 |④---|
48
④④②② |①---|
口口口口 |②---|
口口口口 |③---|
③③①① |④---|
49
口口口口 |①---|
④③②① |②---|
④③②① |③---|
口口口口 |④---|
50
口口②① |①-②-|
口口④③ |③-④-|
口⑦口⑤ |⑤---|
⑥口口口 |⑥-⑦-|
51
④口口④ |①---|
口口口口 |②-③-|
②口③口 |----|
口口①口 |④---|
52
口①①口 |①---|
口口口口 |----|
口口口口 |②---|
②②口口 |----|
53
口口口② |①---|
口①口口 |----|
口口②口 |②---|
口口口① |----|
54
口①①口 |①---|
口口口口 |----|
口口口口 |②---|
口口②② |----|
55
②口口口 |①---|
口口①口 |----|
口②口口 |②---|
①口口口 |----|
56
口①①口 |①---|
口口口口 |----|
口口口口 |②---|
②②口口 |----|
57
口口口② |①---|
口①口口 |----|
口口②口 |②---|
口口口① |----|
58
口①①口 |①---|
口口口口 |----|
口口口口 |②---|
口口②② |----|
59
②口口口 |①---|
口口①口 |----|
口②口口 |②---|
①口口口 |----|
60
口口口口 |----|
口口①口 |①---|
口②口口 |②---|
口④③口 |③-④-|
61
①口口口 |--①-|
口②口④ |②-③-|
口口③口 |----|
口口口口 |--④-|
62
口口⑤口 |①---|
③口①口 |②-③-|
口口④口 |--④-|
口②口口 |--⑤-|
63
口口口口 |--①-|
口①②③ |②-③-|
口口口口 |----|
口口口口 |----|
64
口口②口 |----|
口口口口 |①---|
口①口③ |②---|
口口④口 |③-④-|
65
①口口口 |--①-|
口②口口 |②-③-|
④口③口 |----|
口口口口 |--④-|
66
口③①口 |①---|
口口口⑤ |②-③-|
口④口② |--④-|
口口口口 |--⑤-|
67
口口口口 |--①-|
口①口口 |②-③-|
口口②口 |----|
口③口口 |----|
68
③口①① |----|
口④口口 |①---|
②②口口 |②---|
口口口口 |③-④-|
69
口口口口 |--①-|
④口口① |②-③-|
口口②口 |----|
口③口口 |--④-|
70
③③②⑤ |①---|
口①⑤② |②-③-|
口口④④ |--④-|
口口口口 |--⑤-|
71
口口口口 |--①-|
①口口口 |②-③-|
口②口口 |----|
口口③口 |----|
72
③口口④ |--①-|
③口⑤口 |②---|
口口②① |③---|
口口口口 |④-⑤-|
73
口口口口 |--①-|
口口口口 |②-③-|
口②口④ |----|
①口③口 |--④-|
74
口④③② |①---|
④口口⑤ |②-③-|
口口①口 |--④-|
口口口口 |--⑤-|
75
口口④口 |①-②-|
口②口口 |③-④-|
③口①口 |----|
口⑤⑤口 |⑤---|
76
口口口② |①---|
①口口① |----|
口口口口 |②---|
口口口口 |----|
77
①口②口 |①---|
口③口② |②---|
③口④口 |③---|
口口口④ |④---|
78
②口②口 |①---|
口口口口 |----|
口口口口 |②---|
口①口口 |----|
79
口口口口 |①---|
①口①口 |----|
②口②口 |②---|
口口口口 |----|
80
②口口口 |①---|
口①①口 |----|
口口口口 |②---|
口口口口 |----|
81
口②口① |①---|
②口③口 |②---|
口④口③ |③---|
④口口口 |④---|
82
口②口② |①---|
口口口口 |----|
口口口口 |②---|
口口①口 |----|
83
口口口口 |①---|
口①口① |----|
口②口② |②---|
口口口口 |----|
84
口②口口 |①---|
口口口口 |--②-|
①口③口 |----|
口口口口 |③---|
85
口口口① |--①-|
口②②口 |----|
口口口口 |②---|
口口口口 |----|
86
①①①口 |①---|
③口口⑥ |②---|
口②②② |③-④-|
口④⑤口 |⑤-⑥-|
87
①①口② |①---|
④口③口 |②-③-|
口口口口 |----|
④口口口 |④---|
88
口⑧口口 |①-②-|
口②口① |③-④-|
口④⑦③ |⑤-⑥-|
口⑥口⑤ |⑦-⑧-|
89
④口②④ |①---|
①口口③ |②-③-|
口口口口 |----|
口口口口 |④---|
90
口④⑤口 |①---|
①①①口 |②---|
③口口⑥ |③-④-|
口②②② |⑤-⑥-|
91
④口口口 |①---|
①①口② |②-③-|
④口③口 |----|
口口口口 |④---|
92
口口口⑦ |①-②-|
⑥口口⑤ |③-④-|
口④口③ |⑤---|
口②口① |⑥-⑦-|
93
②口①口 |①---|
口③口口 |②-③-|
④④④④ |----|
口口口口 |④---|
94
②②④④ |①---|
口口口口 |②---|
口口口口 |③---|
①①③③ |④---|
95
口口口口 |①---|
①②③④ |②---|
①②③④ |③---|
①②③④ |④---|
96
①②口口 |①-②-|
③④口口 |③-④-|
⑤口⑦口 |⑤---|
口口口⑥ |⑥-⑦-|
97
口口口口 |①---|
④④④④ |②-③-|
口③口② |----|
口①口口 |④---|
98
④④②② |①---|
口口口口 |②---|
口口口口 |③---|
③③①① |④---|
99
口口口口 |①---|
④③②① |②---|
④③②① |③---|
④③②① |④---|
100
口口②① |①-②-|
口口④③ |③-④-|
口⑦口⑤ |⑤---|
⑥口口口 |⑥-⑦-|
101
④口口④ |①---|
口④④口 |②-③-|
②口③口 |----|
口口①口 |④---|
102
口口口口 |----|
口口口口 |----|
口口口口 |----|
口口口口 |----|

accuracy: 99.5%
最終更新:2023年10月11日 02:05