アットウィキロゴ
ゴーストルール
DECO*27

EXTREME

Level: 9.2
BPM: 210
Notes: 734

1
口口口口 |----|
口口口口 |----|
口口口口 |----|
口口口口 |----|
2
口口③③ |①---|
口口②② |--②-|
口口①① |----|
口口口口 |③---|
3
口口口口 |--①-|
③口口③ |②---|
①口口口 |③---|
口②口口 |----|
4
口③③口 |①---|
口②②口 |--②-|
口①①口 |----|
口口口口 |③---|
5
④口口④ |--①-|
③口口③ |②---|
①口口口 |③---|
口②口口 |④---|
6
口①口口 |①---|
口⑥⑤④ |②-③-|
口①③② |④-⑤-|
口口口口 |⑥---|
7
口⑤口④ |①---|
⑤口口口 |②-③-|
②③口④ |④---|
①口①口 |⑤---|
8
口口口口 |①---|
口口①口 |②-③-|
④⑤⑥口 |④-⑤-|
②③①口 |⑥---|
9
①口①口 |①---|
④口③② |②-③-|
口⑥口⑤ |④-⑤-|
④口口⑦ |⑥-⑦-|
10
口④口② |①---|
口口⑤口 |②---|
口口③口 |③---|
口①口口 |④-⑤-|
11
①口①⑥ |--①-|
⑦③口⑤ |②-③-|
②口口④ |④-⑤-|
口口口口 |⑥-⑦-|
12
③⑤②⑤ |①---|
口口②口 |②-③-|
口④④口 |--④-|
口①口口 |--⑤-|
13
⑥口口口 |--①-|
⑤②口口 |②-③-|
④口口口 |④-⑤-|
①口③口 |⑥---|
14
口⑤②③ |①-②-|
口口⑥口 |③---|
口口④口 |④---|
口①口① |⑤-⑥-|
15
①口①⑥ |--①-|
⑦③口⑤ |②-③-|
②口口④ |④-⑤-|
口口口口 |⑥-⑦-|
16
③口②口 |①---|
口口②⑤ |②-③-|
口④④口 |--④-|
口①口口 |--⑤-|
17
口口口口 |①-②-|
①⑥口口 |③-④-|
③口口② |⑤-⑥-|
⑤口⑦④ |⑦---|
18
①①口口 |①---|
②口②⑤ |②---|
③口③口 |③---|
④口④口 |④-⑤-|
19
⑦①口④ |①-②-|
口③口口 |③-④-|
口⑤口② |⑤---|
口⑥口口 |⑥-⑦-|
20
口口①口 |①---|
口⑤②口 |②-③-|
③口④口 |④-⑤-|
口⑦⑥口 |⑥-⑦-|
21
口②口① |①-②-|
口口口③ |③-④-|
口④口⑤ |⑤---|
口口口⑥ |⑥---|
22
口口口① |①-②-|
⑤口口③ |③---|
口⑦口④ |④-⑤-|
口②口⑥ |⑥-⑦-|
23
②口①口 |①-②-|
口口③口 |③-④-|
⑦口⑤口 |⑤---|
④口⑥口 |⑥-⑦-|
24
口①口口 |①---|
口②⑦③ |②-③-|
口④口⑤ |④-⑤-|
口⑥口口 |⑥-⑦-|
25
①口④口 |①-②-|
③口口口 |③-④-|
口⑤⑤口 |⑤---|
⑥口②⑥ |⑥---|
26
③口口③ |①---|
②口口② |--②-|
①口口① |----|
口口口口 |③---|
27
口口②口 |--①-|
口③②口 |②---|
口③④口 |③---|
口①④口 |④---|
28
③口口③ |①---|
②口口② |--②-|
①口口① |----|
口口口口 |③---|
29
口②口口 |--①-|
口②③口 |②---|
口④③口 |③---|
口④①口 |④---|
30
③口口③ |①---|
②口口② |--②-|
①口口① |----|
口口口口 |③---|
31
口口②口 |--①-|
口③②口 |②---|
口③④口 |③---|
口①④口 |④---|
32
③口口③ |①---|
②口口② |--②-|
①口口① |----|
口口口口 |③---|
33
口②⑤口 |--①-|
口②③口 |②---|
口④③口 |③---|
口④①口 |④-⑤-|
34
口口口口 |①---|
①口口② |--②-|
③口口② |----|
③口口口 |③---|
35
口①①口 |--①-|
口口口口 |----|
口口口口 |②---|
口②②口 |----|
36
口口口① |①---|
③⑥口口 |②---|
口④②② |③-④-|
①口⑤口 |⑤-⑥-|
37
②⑤①① |①---|
⑤口口③ |②-③-|
④口③口 |④---|
口口口口 |⑤---|
38
口口口口 |①-②-|
⑧⑦⑥⑤ |③-④-|
口口口口 |⑤-⑥-|
④③②① |⑦-⑧-|
39
口④①① |①---|
口口口口 |②-③-|
口②③口 |④---|
口⑤⑤口 |⑤---|
40
①口口口 |①---|
口口⑥③ |②---|
②②④口 |③-④-|
口⑤口① |⑤-⑥-|
41
①①⑤② |①---|
③口口⑤ |②-③-|
口③口④ |④---|
口口口口 |⑤---|
42
口口口口 |①-②-|
⑤⑥⑦⑧ |③-④-|
口口口口 |⑤-⑥-|
①②③④ |⑦-⑧-|
43
①①④⑤ |①---|
口口口口 |②-③-|
口③②⑤ |④---|
口口口口 |⑤---|
44
口③④口 |①-②-|
③口②④ |③---|
①⑤口⑥ |④-⑤-|
口①⑥口 |⑥---|
45
口③④口 |①-②-|
③⑤口④ |③---|
①口②⑥ |④-⑤-|
口①⑥口 |⑥---|
46
⑥⑤⑤⑥ |①-②-|
③⑦①口 |③-④-|
口口④口 |⑤---|
口②口口 |⑥-⑦-|
47
⑤口口口 |①---|
口口④② |②-③-|
⑤口④口 |④---|
①③①口 |⑤---|
48
口④③口 |①-②-|
④②口③ |③---|
⑥口⑤① |④-⑤-|
口⑥①口 |⑥---|
49
口④③口 |①-②-|
④口⑤③ |③---|
⑥②口① |④-⑤-|
口⑥①口 |⑥---|
50
⑥⑤⑤⑥ |①-②-|
口①⑦③ |③-④-|
口④口口 |⑤---|
口口②口 |⑥-⑦-|
51
口口⑤⑤ |①---|
②口口口 |②-③-|
④口口口 |④---|
口①③① |⑤---|
52
口①口口 |①---|
口⑥⑤④ |②-③-|
口①③② |④-⑤-|
口口口口 |⑥---|
53
口⑤口④ |①---|
⑤口口口 |②-③-|
②③口④ |④---|
①口①口 |⑤---|
54
口口口口 |①---|
口口①口 |②-③-|
④⑤⑥口 |④-⑤-|
②③①口 |⑥---|
55
①口①口 |①---|
④口③② |②-③-|
口口口口 |④---|
④口⑤⑤ |⑤---|
56
口①口口 |①---|
口⑥⑤④ |②-③-|
口①③② |④-⑤-|
口口口口 |⑥---|
57
口⑤口④ |①---|
⑤口口口 |②-③-|
②③口④ |④---|
①口①口 |⑤---|
58
口口口口 |①---|
口口①口 |②-③-|
④⑤⑥口 |④-⑤-|
②③①口 |⑥---|
59
①口①口 |①---|
④口③② |②-③-|
口⑥口⑤ |④-⑤-|
④口⑦口 |⑥-⑦-|
60
口③口① |----|
口口④口 |①---|
口口②口 |②---|
口口口口 |③-④-|
61
口口口口 |--①-|
④①口③ |②-③-|
②口口口 |----|
口口口口 |--④-|
62
③口②⑤ |①---|
口口口口 |②-③-|
口口口④ |--④-|
口①口口 |--⑤-|
63
口口口口 |--①-|
口②口口 |②-③-|
口口口口 |----|
①口③口 |----|
64
口③口① |----|
口口④口 |①---|
口口②口 |②---|
口口口口 |③-④-|
65
口口口口 |--①-|
④①口③ |②-③-|
②口口口 |----|
口口口口 |--④-|
66
③口②⑤ |①---|
口口口口 |②-③-|
口口口④ |--④-|
口①口口 |--⑤-|
67
口口口口 |--①-|
口⑤③⑦ |②-③-|
②口口口 |④-⑤-|
口④①⑥ |⑥-⑦-|
68
①①口② |①-②-|
③口口⑥ |③---|
④口④口 |④---|
⑤口⑤口 |⑤-⑥-|
69
⑦①口④ |①-②-|
口③口口 |③-④-|
口⑤口② |⑤---|
口⑥口口 |⑥-⑦-|
70
口口①口 |①---|
口⑤②口 |②-③-|
③口④口 |④-⑤-|
口⑦⑥口 |⑥-⑦-|
71
口②口① |①-②-|
口口口③ |③-④-|
口④口⑤ |⑤---|
口口口⑥ |⑥---|
72
口口口① |①-②-|
⑤口口③ |③---|
口⑦口④ |④-⑤-|
口②口⑥ |⑥-⑦-|
73
②口①口 |①-②-|
口口③口 |③-④-|
⑦口⑤口 |⑤---|
④口⑥口 |⑥-⑦-|
74
口①口口 |①---|
口②⑦③ |②-③-|
口④口⑤ |④-⑤-|
口⑥口口 |⑥-⑦-|
75
①口④口 |①-②-|
③口口口 |③-④-|
口⑤⑤口 |⑤---|
⑥口②⑥ |⑥---|
76
③口口③ |①---|
②口口② |--②-|
①口口① |----|
口口口口 |③---|
77
口口②口 |--①-|
口③②口 |②---|
口③④口 |③---|
口①④口 |④---|
78
③口口③ |①---|
②口口② |--②-|
①口口① |----|
口口口口 |③---|
79
口②口口 |--①-|
口②③口 |②---|
口④③口 |③---|
口④①口 |④---|
80
③口口③ |①---|
②口口② |--②-|
①口口① |----|
口口口口 |③---|
81
口口②口 |--①-|
口③②口 |②---|
口③④口 |③---|
口①④口 |④---|
82
③口口③ |①---|
②口口② |--②-|
①口口① |----|
口口口口 |③---|
83
口②口口 |--①-|
口②③口 |②---|
口④③口 |③---|
口④①口 |④---|
84
①口①口 |①---|
口口口② |--②-|
③口口② |----|
③口口口 |③---|
85
口口口口 |--①-|
口②②口 |----|
口口口口 |②---|
口①①口 |----|
86
口口③① |①-②-|
④⑦⑥⑤ |③-④-|
口⑧③① |⑤-⑥-|
口②口口 |⑦-⑧-|
87
①①口口 |①---|
口口口④ |②-③-|
③口口② |④---|
⑤③⑤口 |⑤---|
88
④③②① |①-②-|
口口口口 |③-④-|
⑧⑦⑥⑤ |⑤-⑥-|
口口口口 |⑦-⑧-|
89
口口④① |①---|
③⑤①口 |②-③-|
口口⑥口 |④-⑤-|
②⑦口口 |⑥-⑦-|
90
①③口口 |①-②-|
⑤⑥⑦④ |③-④-|
①③⑧口 |⑤-⑥-|
口口②口 |⑦-⑧-|
91
口口①① |①---|
④口口口 |②-③-|
②口口③ |④---|
口⑤③⑤ |⑤---|
92
①②③④ |①-②-|
口口口口 |③-④-|
⑤⑥⑦⑧ |⑤-⑥-|
口口口口 |⑦-⑧-|
93
①口口④ |①---|
口①口口 |②-③-|
口⑤⑤口 |④---|
口口③② |⑤---|
94
①③⑤⑦ |①-②-|
①③⑤⑦ |③-④-|
口口口口 |⑤-⑥-|
②④⑥⑧ |⑦-⑧-|
95
①③⑤⑦ |①-②-|
①③⑤⑦ |③-④-|
口口口口 |⑤-⑥-|
②④⑥⑧ |⑦-⑧-|
96
口⑤⑤口 |①-②-|
⑦口口口 |③-④-|
①②③④ |⑤---|
⑥⑥口口 |⑥-⑦-|
97
②口口口 |①---|
口③口口 |②-③-|
⑦⑥⑤④ |④-⑤-|
口口①① |⑥-⑦-|
98
⑦⑤③① |①-②-|
⑦⑤③① |③-④-|
口口口口 |⑤-⑥-|
⑧⑥④② |⑦-⑧-|
99
⑦⑤③① |①-②-|
⑦⑤③① |③-④-|
口口口口 |⑤-⑥-|
⑧⑥④② |⑦-⑧-|
100
口⑤⑤口 |①-②-|
口口口⑦ |③-④-|
④③②① |⑤---|
口口⑥⑥ |⑥-⑦-|
101
④④口② |①---|
口口③口 |②-③-|
⑤口口⑤ |④---|
①①口口 |⑤---|
102
口口口口 |①---|
口口口口 |----|
口①①口 |----|
口①①口 |----|

accuracy: 99.5%
最終更新:2023年10月11日 02:05