アットウィキロゴ
妄想感傷代償連盟
DECO*27

BASIC

Level: 3
BPM: 110
Notes: 152

1
口口口口 |----|
口口口口 |----|
口口口口 |----|
口口口口 |----|
2
口口口口 |①---|
口②口① |----|
口口口口 |②---|
口口口口 |----|
3
口口口口 |①---|
口口口口 |----|
口②口① |②---|
口口口口 |----|
4
口口口口 |①---|
口口口口 |----|
口口口口 |②---|
口②口① |----|
5
口口口口 |①---|
口口③口 |----|
口②口① |②---|
口口口口 |③---|
6
口③②① |①---|
口口口口 |②---|
口口口口 |③---|
口口口口 |----|
7
口口口口 |①---|
口③②① |②---|
口口口口 |③---|
口口口口 |----|
8
口①①口 |①---|
口②②口 |----|
口口口口 |②---|
口口口口 |----|
9
口口口口 |①---|
①②③④ |②---|
口口口口 |③---|
口口口口 |④---|
10
①②③口 |①---|
口口口口 |②---|
口口口口 |③---|
口口口口 |----|
11
口口口口 |①---|
①②③口 |②---|
口口口口 |③---|
口口口口 |----|
12
口①①口 |①---|
口②②口 |----|
口口口口 |②---|
口口口口 |----|
13
口口口口 |①---|
④③②① |②---|
口口口口 |③---|
口口口口 |④---|
14
口①①口 |①---|
口口②口 |----|
口口口口 |②---|
口口口口 |----|
15
口口口口 |①---|
①口口口 |----|
口口②口 |②---|
口口口口 |----|
16
口口口口 |①---|
口口口口 |----|
①口口口 |②---|
口口②口 |----|
17
口口口口 |①---|
口③口口 |----|
口口②口 |②---|
①口口口 |③---|
18
①②③口 |①---|
口口口口 |②---|
口口口口 |③---|
口口口口 |----|
19
口口口口 |①---|
①②③口 |②---|
口口口口 |③---|
口口口口 |----|
20
口①①口 |①---|
口②②口 |----|
口口口口 |②---|
口口口口 |----|
21
口口口口 |①---|
④③②① |②---|
口口口口 |③---|
口口口口 |④---|
22
口③②① |①---|
口口口口 |②---|
口口口口 |③---|
口口口口 |----|
23
口口口口 |①---|
口③②① |②---|
口口口口 |③---|
口口口口 |----|
24
口①①口 |①---|
口②②口 |----|
口口口口 |②---|
口口口口 |----|
25
口口口口 |①---|
①②③④ |②---|
口口口口 |③---|
口口口口 |④---|
26
口口①口 |①---|
口口②口 |----|
口口口口 |②---|
口口口口 |----|
27
口口口口 |①---|
口口口口 |②---|
①②③口 |③---|
口口口口 |----|
28
口口口口 |①---|
口①①口 |----|
口②②口 |②---|
口口口口 |----|
29
口①口口 |①---|
口②口口 |②---|
口③口口 |③---|
口④口口 |④---|
30
口口口口 |①---|
④口②口 |②---|
口③口① |③---|
口口口口 |④---|
31
口①①口 |①---|
口②②口 |----|
口口口口 |②---|
口口口口 |----|
32
口③②① |①---|
口口口口 |②---|
口口口口 |③---|
口口口口 |----|
33
口口①口 |①---|
口口②口 |②---|
口口③口 |③---|
口口④口 |④---|
34
口口口口 |①---|
口②口④ |②---|
①口③口 |③---|
口口口口 |④---|
35
口①①口 |①---|
口②②口 |----|
口口口口 |②---|
口口口口 |----|
36
①②③口 |①---|
口口口口 |②---|
口口口口 |③---|
口口口口 |----|
37
口①口口 |①---|
口口②口 |②---|
口③口口 |③---|
口口④口 |④---|
38
口口口口 |①---|
②口口② |----|
①口口① |②---|
口口口口 |----|
39
口口①口 |①---|
口②口口 |②---|
口口③口 |③---|
口④口口 |④---|
40
口口口口 |①---|
口③②① |②---|
口口口口 |③---|
口口口口 |----|
41
口①口口 |①---|
口口②口 |②---|
口③口口 |③---|
口口④口 |④---|
42
口口口口 |①---|
②口口② |----|
①口口① |②---|
口口口口 |----|
43
口口①口 |①---|
口②口口 |②---|
口口③口 |③---|
口④口口 |④---|
44
口口口口 |①---|
口③②① |②---|
口口口口 |③---|
口口口口 |----|
45
口①①口 |①---|
口②②口 |----|
口口口口 |②---|
口口口口 |----|
46
口口口口 |①---|
口口口口 |----|
口①①口 |②---|
口②②口 |----|
47
口口口口 |----|
口口口口 |----|
口口口口 |----|
口口口口 |----|
48
口口口口 |----|
口口口口 |----|
口口口口 |----|
口口口口 |----|

accuracy: 99.5%
最終更新:2024年09月08日 17:36