アットウィキロゴ
妄想感傷代償連盟
DECO*27

ADVANCED

Level: 7
BPM: 110
Notes: 446

1
口口口口 |----|
口口口口 |----|
口口口口 |----|
口口口口 |----|
2
②口①③ |①---|
④口③① |②---|
口口口口 |③---|
口口口口 |④---|
3
口口口口 |①---|
口口口口 |②---|
②口①③ |③---|
④口③① |④---|
4
③①口② |①---|
①③口④ |②---|
口口口口 |③---|
口口口口 |④---|
5
口口口口 |①---|
口⑥口口 |②---|
③①⑤② |③-④-|
①③口④ |⑤-⑥-|
6
口口①① |①-②-|
④口③口 |③④⑤⑥|
⑥口⑤口
②②口口

口⑨口口
口口⑩⑧
口口口口 |⑦-⑧-|
口口⑦口 |⑨⑩--|
7
口口①① |①-②-|
口口口口 |③④⑤-|
口④口③
②②口⑤

⑩口口口
口⑧⑥口
口口⑨口 |⑥-⑦-|
口⑦口口 |⑧⑨-⑩|
8
口⑧口④ |①-②③|
①⑥②⑤ |---④|
口③⑦口 |⑤-⑥⑦|
口口口口 |---⑧|
9
②口①口 |①-②-|
口④口口 |③-④-|
口口③口
口口口口

口口⑤口
口口⑦⑤
⑥⑦口口 |⑤-⑥-|
口⑥口口 |⑦---|
10
①①口口 |①-②-|
口③口④ |③④⑤⑥|
口⑤口⑥
口口②②

口口⑨口
⑧⑩口口
口口口口 |⑦-⑧-|
口⑦口口 |⑨⑩--|
11
①①口口 |①-②③|
口口口口 |-④⑤-|
口③口②
口⑤口④

口口口⑩
口⑥⑧口
口⑨口口 |⑥-⑦-|
口口⑦口 |⑧⑨-⑩|
12
④口⑧口 |①-②③|
⑤②⑥① |---④|
口⑦③口 |⑤-⑥⑦|
口口口口 |---⑧|
13
口①口② |①-②-|
口口④口 |③-④-|
口③口口
口口口口

⑧⑤口⑧
⑤⑦口口
口口⑦⑥ |⑤-⑥-|
口口⑥口 |⑦-⑧-|
14
口口②口 |①---|
口口口口 |②---|
口口口口
①口口①

口④口口
口口口口
口口口口 |③---|
③口口③ |④---|
15
口口口② |①---|
口口口口 |②---|
口口口口
①口口①

④口口口
口口口口
口口口口 |③---|
③口口③ |④---|
16
口口②口 |①---|
口口口口 |②---|
口口口口
①口口①

口④口口
口口口口
口口口口 |③---|
③口口③ |④---|
17
口口口② |①---|
口口口口 |②---|
口口口口
①口口①

④口口口
口⑤口口
口口⑥口 |③-④-|
③口口③ |⑤-⑥-|
18
口①①口 |①-②-|
口④口③ |③④⑤⑥|
口⑥口⑤
口②②口

口口口口
⑧口口⑨
口口⑩口 |⑦-⑧-|
口口口⑦ |⑨⑩--|
19
①口①口 |①-②-|
口口口口 |③④⑤⑥|
⑤②⑥②
③口④口

口口⑧口
⑦口口口
口⑨口⑪ |⑦-⑧-|
口口⑩口 |⑨⑩-⑪|
20
口③口口 |①-②③|
③口②口 |---④|
④口口口
口口口①

口⑧⑦口
口⑥口⑦
口口口口 |⑤-⑥⑦|
⑤口口口 |---⑧|
21
①口③口 |①-②-|
口④口口 |③-④-|
②口口口
口口口口

口⑤口口
口口⑥⑤
⑥⑦⑦口 |⑤-⑥-|
口口口口 |⑦---|
22
口①①口 |①-②-|
③口④口 |③④⑤⑥|
⑤口⑥口
口②②口

口口口口
⑨口口⑧
口⑩口口 |⑦-⑧-|
⑦口口口 |⑨⑩--|
23
口①口① |①-②-|
口口口口 |③④⑤⑥|
②⑥②⑤
口④口③

口口口口
口⑧口⑦
⑩口口口 |⑦⑧-⑨|
口⑪⑨口 |⑩⑪--|
24
①①③口 |①-②③|
口②口③ |---④|
口口口④
口口口口

口⑦⑧口
⑦口⑥口
口口口口 |⑤-⑥⑦|
口口口⑤ |---⑧|
25
口④口① |①-②-|
口口口口 |③-④-|
口②口③
口口口口

口口⑥口
⑥⑦⑤口
⑧口口⑦ |⑤-⑥-|
口⑨口口 |⑦-⑧⑨|
26
②口口② |①---|
口口口口 |②---|
口口①口
口口口口

口口口口
口③③口
④⑤⑤④ |③---|
口口口口 |④-⑤-|
27
口①口口 |--①-|
口口口② |②-③-|
口口③口
口口口口

⑤⑥⑦口
口口口口
口口口口 |④-⑤-|
口④口口 |⑥-⑦-|
28
口口口① |①---|
口口②② |②-③④|
③口口口
口④口口

口口口⑥
口⑦口口
口口⑤⑧ |⑤-⑥-|
口口口口 |⑦-⑧-|
29
①①④口 |①-②-|
①口口② |③-④-|
③口④口
③③口②

⑤⑤口⑧
⑤口⑥口
⑦口口⑧ |⑤-⑥-|
⑦⑦⑥口 |⑦-⑧-|
30
口口口口 |①-②-|
①①③③ |③-④-|
口口口口
④口口②

⑤口⑤口
口⑦口⑦
⑥口⑥口 |⑤-⑥-|
口⑧口⑧ |⑦-⑧-|
31
口口口口 |--①-|
①口③口 |②-③-|
口②口口
口口口口

口⑤⑤口
口口口⑦
⑥⑥口④ |④-⑤-|
口口口口 |⑥-⑦-|
32
口口口口 |①-②-|
③④⑤口 |③-④-|
⑥⑥①口 |⑤---|
口②口口 |--⑥-|
33
口④①① |①-②-|
②口口① |③-④-|
口④口③
②口③③

⑧口⑤⑤
口⑥口⑤
⑧口口⑦ |⑤-⑥-|
口⑥⑦⑦ |⑦-⑧-|
34
口口口口 |①-②-|
③③①① |③-④-|
口口口口
②口口④

口⑤口⑤
⑦口⑦口
口⑥口⑥ |⑤-⑥-|
⑧口⑧口 |⑦-⑧-|
35
口⑥口口 |--①-|
口③⑦① |②-③-|
④口②口 |④-⑤-|
口⑤口口 |⑥-⑦-|
36
口口③口 |①-②-|
口④口口 |③-④-|
⑥①⑤⑥ |⑤---|
⑥口②⑥ |⑥---|
37
口口②① |①②③④|
⑥⑦④③ |⑤---|
⑧⑨口⑤ |⑥⑦⑧⑨|
⑩口口口 |⑩---|
38
口口②① |--①-|
口口口口 |-②--|
口口②①
口口口口

口口口口
口口口口
④口口④ |③---|
口③③口 |④---|
39
①②口口 |①②③④|
③④⑦⑥ |⑤---|
⑤口⑨⑧ |⑥⑦⑧⑨|
口口口⑩ |⑩---|
40
①①②② |①---|
①口口② |②---|
口④④口 |③---|
口③③口 |④---|
41
口口②① |①②③④|
⑥⑦④③ |⑤---|
⑧⑨口⑤ |⑥⑦⑧⑨|
⑩口口口 |⑩---|
42
口口②① |--①-|
口口口口 |-②--|
口口②①
口口口口

口口口口
口口口口
④口口④ |③---|
口③③口 |④---|
43
①②口口 |①②③④|
③④⑦⑥ |⑤---|
⑤口⑨⑧ |⑥⑦⑧⑨|
口口口⑩ |⑩---|
44
①①②② |①---|
①口口② |②---|
口④④口 |③---|
口③③口 |④---|
45
口口②① |①②③④|
⑥⑦④③ |⑤---|
⑧⑨口⑤ |⑥⑦⑧⑨|
⑩口口口 |⑩---|
46
口③③① |--①-|
口口口口 |-②--|
口口②口 |③---|
口④④口 |④---|
47
口口口口 |----|
口口口口 |----|
口口口口 |----|
口口口口 |----|
48
口口口口 |----|
口口口口 |----|
口口口口 |----|
口口口口 |----|

accuracy: 99.5%
最終更新:2024年09月08日 17:36