アットウィキロゴ
妄想感傷代償連盟
DECO*27

EXTREME

Level: 9.3
BPM: 110
Notes: 650

1
口口口口 |----|
口口口口 |----|
口口口口 |----|
口口口口 |----|
2
口①口① |①-②-|
④⑤口口 |③-④⑤|
口口②口
口③口口

口⑦口口
口口⑥⑧
口口⑦⑧ |⑥-⑦-|
⑨⑨口口 |⑧-⑨-|
3
①口①口 |①-②-|
口口⑤④ |③-④⑤|
口②口口
口口③口

口口⑦口
⑧⑥口口
⑧⑦口口 |⑥-⑦-|
口口⑨⑨ |⑧-⑨-|
4
口①口① |①-②-|
④⑤口口 |③-④⑤|
口口②口
口③口口

口⑦口口
口口⑥⑧
口口⑦⑧ |⑥-⑦-|
⑨⑨口口 |⑧-⑨-|
5
①口①口 |①-②-|
口口⑤④ |③-④⑤|
口②口口
口口③口

口⑧⑦口
口⑥口口
口⑦⑧口 |⑥-⑦-|
口⑨⑨口 |⑧-⑨-|
6
①口口① |①-②-|
③口④口 |③④⑤⑥|
⑤口⑥口
②口口②

口口⑪口
⑫⑫口⑪
口⑦⑬⑧ |⑦⑧⑨⑩|
口⑨口⑩ |⑪⑫-⑬|
7
口④⑦⑦ |①②③④|
口口⑤口 |⑤⑥⑦-|
①口口⑥
③口②口

⑪⑪口口
口⑬口⑩
⑧⑧⑨口 |⑧-⑨⑩|
口口⑫⑫ |⑪⑫-⑬|
8
口口④④ |①-②③|
口⑤口口 |④--⑤|
口口②口
③①口口

口口口⑨
口口⑦⑨
⑧⑩口口 |⑥-⑦⑧|
口⑥口口 |⑨--⑩|
9
口①口口 |①-②③|
③口②口 |④⑤⑥⑦|
⑤口④口
⑦口⑥口

口⑩⑩口
口⑧口⑨
⑫⑪⑪口 |⑧⑨⑩-|
口口口口 |⑪--⑫|
10
口④⑤口 |①-②③|
③①①⑥ |④⑤⑥⑦|
口口口⑦
口②②口

口口口口
口⑧⑨口
⑭⑩⑪口 |⑧⑨⑩⑪|
口⑫⑬口 |⑫⑬-⑭|
11
①口④口 |①-②③|
⑤口②口 |-④⑤⑥|
口口⑥③
口口口口

口口⑬口
口⑧⑪⑦
口⑫口口 |⑦⑧⑨⑩|
口⑩口⑨ |⑪⑫-⑬|
12
④④⑤口 |①-②③|
口②口口 |④--⑤|
口口①③
口口口口

⑨口口口
⑨口口口
口⑦⑥口 |⑥-⑦⑧|
口⑩口⑧ |⑨--⑩|
13
口②口① |①②③④|
口④口③ |⑤⑥⑦⑧|
口⑥口⑤
口⑧口⑦

⑬⑪⑪⑬
口口口⑫
⑩口⑨⑫ |⑨⑩⑪-|
口口口口 |⑫-⑬-|
14
④②⑦⑨ |①-②-|
②⑤⑨⑦ |③-④⑤|
⑧口⑥③ |⑥-⑦-|
⑧①①口 |⑧-⑨-|
15
⑨⑦②④ |①-②-|
⑦⑨⑤② |③-④⑤|
③⑥口⑧ |⑥-⑦-|
口①①⑧ |⑧-⑨-|
16
④②⑦⑨ |①-②-|
②⑤⑨⑦ |③-④⑤|
⑧口⑥③ |⑥-⑦-|
⑧①①口 |⑧-⑨-|
17
口口②④ |①-②-|
口口⑤② |③-④⑤|
③口口口
③①①口

口⑦口口
⑦⑨口口
口⑥⑨⑧ |⑥-⑦-|
口口⑧口 |⑧-⑨-|
18
①口口① |①-②③|
口⑦口⑥ |④⑤⑥⑦|
口⑤口④
口③口②

口口⑫⑫
⑨口⑧口
⑪口⑩⑭ |⑧⑨⑩⑪|
⑬⑬口口 |⑫⑬-⑭|
19
③④口⑧ |①②③④|
⑤⑥口口 |⑤⑥⑦⑧|
⑦②口口
口口①口

口口⑨口
口⑮⑪⑩
口⑭口⑫ |⑨⑩⑪⑫|
口口⑬口 |⑬⑭-⑮|
20
口口④④ |①-②③|
口⑤口口 |④--⑤|
口口②口
③①口口

口口口⑨
口口⑦⑨
⑧口口口 |⑥-⑦⑧|
口⑥⑩口 |⑨--⑩|
21
①口②口 |①②③④|
③口④口 |⑤⑥⑦⑧|
⑤口⑥口
⑦口⑧口

口⑬⑬口
口口口口
口⑪口⑫ |⑨⑩⑪⑫|
口⑨口⑩ |⑬---|
22
③口④口 |①-②-|
⑤口⑥口 |③④⑤⑥|
②口①口
②口①口

口⑪口⑪
口⑦口⑧
口⑨⑫⑩ |⑦⑧⑨⑩|
⑬口口口 |⑪⑫-⑬|
23
④口③口 |①-②③|
①①⑦口 |④⑤⑥⑦|
⑥口⑤口
口②②口

口口口⑨
⑧⑫⑬⑨
口口口⑪ |⑧⑨-⑩|
口⑩口口 |⑪⑫-⑬|
24
④④口口 |①-②③|
口口⑤口 |④--⑤|
口②口口
口口①③

⑨口口口
⑨⑦口口
口口口⑧ |⑥-⑦⑧|
口⑩⑥口 |⑨--⑩|
25
口②口① |①②③④|
口④口③ |⑤⑥⑦⑧|
口⑥口⑤
口⑧口⑦

口口⑪⑪
⑫⑫口⑬
口口⑭口 |⑨⑩⑪-|
⑩口⑨口 |⑫-⑬⑭|
26
口②口口 |①---|
口口②口 |②---|
②口口口
口①口口

口口④④
口口口口
⑤③⑤③ |③---|
口口③口 |④-⑤-|
27
①口⑦口 |--①-|
口⑥②口 |②-③-|
⑤③④③ |④-⑤-|
口口②口 |⑥-⑦-|
28
①口口① |①---|
④口口口 |②-③④|
口口③口
②口口②

口口⑤口
口⑦口⑥
口口⑧口 |⑤-⑥-|
口⑥口⑦ |⑦-⑧-|
29
④②①口 |①-②-|
③口③口 |③-④-|
口③口口
①②口④

口口⑦⑥
口⑤⑧口
⑤⑧⑤⑧ |⑤-⑥-|
口⑥⑦口 |⑦-⑧-|
30
口①④④ |①-②③|
②⑤口① |④-⑤⑥|
口口口口
口③⑥口

⑦⑪⑪口
⑩口⑧⑩
⑦口⑦口 |⑦-⑧⑨|
口口口⑨ |⑩-⑪-|
31
③口口口 |①-②-|
口口口口 |③-④-|
②②④口
口①①口

口⑧⑤口
⑧⑥口⑥
口口口口 |⑤-⑥-|
口⑦口⑦ |⑦-⑧-|
32
口口口口 |①-②-|
口③①③ |③-④-|
口①口②
口④②④

⑤口⑤口
⑥口口⑥
⑤口⑤口 |⑤---|
口⑦口口 |⑥-⑦-|
33
口①②④ |①-②-|
口③口③ |③-④-|
口口③口
④口②①

口⑧口口
⑤⑨口口
⑨⑥⑨口 |⑤⑥⑦-|
口⑧⑦口 |⑧-⑨-|
34
④④①口 |①-②③|
①口⑤② |④-⑤⑥|
口口口口
口⑥③口

口⑫⑫口
⑪口口⑪
⑩⑧⑦⑨ |⑦⑧⑨⑩|
口口口口 |⑪-⑫-|
35
口口口③ |①-②-|
口口④口 |③-④-|
口口②②
口①①口

⑦⑤⑧口
⑦口⑧⑥
⑤口口口 |⑤-⑥-|
口口⑥口 |⑦-⑧-|
36
口②口② |①-②-|
④①④口 |③-④-|
口①②③
口④口口

⑥⑥⑥⑥
口口口口
口口口口 |⑤---|
⑤口口口 |⑥---|
37
口口口口 |①②③④|
口①口① |⑤---|
口③②③
口⑤④⑤

⑥⑧⑩口
口⑦⑨口
⑥⑧⑩口 |⑥⑦⑧⑨|
口口口口 |⑩---|
38
口口口② |①-②-|
③口口口 |③④--|
口④口口
口①①口

⑥⑥⑥⑥
口口口口
口口口口 |⑤---|
⑤⑤口口 |⑥---|
39
口口口口 |①②③④|
①口①口 |⑤---|
③②③口
⑤④⑤口

口⑩⑧⑥
口⑨⑦口
口⑩⑧⑥ |⑥⑦⑧⑨|
口口口口 |⑩---|
40
②口口③ |①-②-|
④口口① |③-④-|
口③②口
口①④口

⑥⑥⑥⑥
口⑤⑤口
⑤口口⑤ |⑤---|
口口口口 |⑥---|
41
口口口口 |①②③④|
口①口① |⑤---|
口③②③
口⑤④⑤

⑥⑧⑩口
口⑦⑨口
⑥⑧⑩口 |⑥⑦⑧⑨|
口口口口 |⑩---|
42
口口口② |①-②-|
③口口口 |③④--|
口④口口
口①①口

⑥⑥⑥⑥
口口口口
口口口口 |⑤---|
⑤⑤口口 |⑥---|
43
口口口口 |①②③④|
①口①口 |⑤---|
③②③口
⑤④⑤口

口⑩⑧⑥
口⑨⑦口
口⑩⑧⑥ |⑥⑦⑧⑨|
口口口口 |⑩---|
44
②口口③ |①-②-|
④口口① |③-④-|
口③②口
口①④口

⑨⑨⑨⑨
口口口口
⑥口⑩⑤ |⑤⑥⑦⑧|
⑧⑩口⑦ |⑨-⑩-|
45
口口口口 |①②③④|
口②口① |⑤---|
口④口③
口口⑤口

⑥⑧口口
口口⑩口
⑦⑨口口 |⑥⑦⑧⑨|
口口口口 |⑩---|
46
口⑤⑤② |①-②-|
口口口口 |-③--|
口③口口 |④---|
④①①口 |⑤---|
47
口口口口 |①②③④|
①口②口 |⑤---|
③口④口
口⑤口口

口口⑧⑥
口⑩口口
口口⑨⑦ |⑥⑦⑧⑨|
口口口口 |⑩---|
48
口口口口 |①---|
口口口口 |----|
口口口口 |----|
口①①口 |----|

accuracy: 99.5%
最終更新:2024年09月08日 17:35