アットウィキロゴ
少女、摩天楼へ
BEMANI Sound Team "U1 overground"

EXTREME

Level: 10.3
BPM: 150
Notes(hold): 793(32)

1
口口口口 |----|
口口口口 |----|
口口口口 |----|
口口口口 |----|
2
∨∨口口 |①---|
┃┃口口 |----|
┃┃口口 |----|
①①口口 |----|
3
口口①① |①---|
口口┃┃ |----|
口口∧∧
①①口口

口口②②
②②口口
┃┃口口 |②---|
∧∧口口 |----|
4
口口口口 |①---|
①①口口 |----|
>━━① |----|
>━━① |----|
5
口口口口 |----|
口口口口 |----|
口口口口 |----|
口口口口 |----|
6
口①━< |①---|
①━<口 |----|
口口口① |----|
口口口① |----|
7
口①口∨ |①---|
①口∨┃ |----|
口口┃①
口口①口

②━<口
口②━<
口口口② |②---|
口口②口

③口口口
口③口口
口口③口
口口口口 |③---|
8
∨∨口口 |①---|
┃┃口口 |----|
┃┃口口 |----|
①①口口 |----|
9
口口口口 |----|
口口口口 |----|
口口口口 |----|
口口口口 |----|
10
①口口② |①---|
口④③口 |②---|
口③④口 |③---|
①①口② |④---|
11
口①②口 |①-②-|
口口口口 |③---|
③口口口
口①②口

口⑤口⑥
口口④口
口⑤口⑥ |④---|
④口口④ |⑤-⑥-|
12
口口④口 |①---|
口②口口 |②---|
③口口口 |③---|
口①④口 |④---|
13
口①口口 |①-②-|
③口口② |③---|
口口口口
口①口口

口口口∨
口口口┃
口口口┃ |④---|
口口口④

口口口口
口口口口
口口口口
⑤口口⑤ |⑤---|
14
口③①∨ |①-②-|
口②口┃ |③---|
口口口┃ |④---|
口③①④

口口口⑤
口口口口
口口口口
口口口⑤ |⑤---|
15
①口②口 |①-②-|
口③口口 |③-④-|
>━━④
①口②口

口⑥口⑦
口口口口
⑤口口⑤ |⑤-⑥-|
口⑥口⑦ |⑦---|
16
口⑤③口 |①-②-|
口①口口 |③---|
口②①④ |④---|
③⑤口口 |⑤---|
17
②口口① |①---|
>━━③ |②---|
口口口口 |③---|
②口口①

口口口口
④口口④
口口口口
口口口口 |④---|
18
①口口③ |①-②-|
⑧⑦⑤⑥ |③-④-|
④⑤⑦② |⑤-⑥-|
①口口③ |⑦-⑧-|
19
口①②口 |①-②-|
口口口④ |③-④-|
③口口口
口①②口

口⑦口⑧
口口⑥口
口⑦口⑧ |⑤-⑥-|
⑤口口⑤ |⑦-⑧-|
20
口口④口 |①---|
口②口口 |②---|
③口口口 |③---|
口①④口 |④---|
21
口①口口 |①-②-|
③口口② |③-④-|
口口④口
口①口口

口口口∨
口口口┃
口口口┃ |⑤---|
口口口⑤

∨口口口
┃口口口
┃口口口
⑥口口⑥ |⑥---|
22
口③①∨ |①-②-|
口②口┃ |③-④-|
口⑥④┃ |⑤-⑥-|
①③①⑤

口口口⑦
口口⑧口
口口口口
口口口⑦ |⑦-⑧-|
23
①口②口 |①-②-|
口③口口 |③-④-|
>━━④
①口②口

口⑥口⑦
口口口口
⑤⑧口⑤ |⑤-⑥-|
口⑥口⑦ |⑦-⑧-|
24
口口①口 |①---|
②口┃口 |②---|
口口┃④ |③---|
③口∧口 |④---|
25
⑤口①⑧ |①---|
④①②⑦ |②---|
③①②⑥ |③-④-⑤-|
口口口口 |⑥-⑦-⑧-|
26
⑦口②⑧ |①-②-|
口③④口 |③-④-|
口⑤⑥口 |⑤-⑥-|
①━━< |⑦-⑧-|
27
⑦①②口 |①-②-|
口③④口 |③-④-|
口⑤⑥口 |⑤-⑥-|
口口口口 |⑦---|
28
>━━① |①-②-|
口④③口 |③-④-|
⑧⑥⑤⑦ |⑤-⑥-|
①②口口 |⑦-⑧-|
29
口口口⑦ |①-②-|
口④③口 |③-④-|
口⑥⑤⑦ |⑤-⑥-|
⑧②①口 |⑦-⑧-|
30
口③①口 |①-②-|
②口④口 |③④⑤⑥|
口⑤口口
口口⑥口

⑦口⑭口
口⑬口⑧
⑨口⑫口 |⑦⑧⑨⑩|
口⑪口⑩ |⑪⑫⑬⑭|
31
口⑤⑦口 |①-②-|
①⑧口口 |③---|
口②口口 |④-⑤-|
③⑥④口 |⑥-⑦⑧|
32
口口口口 |①-②-|
③口口口 |③---|
口②口口
①口口口

⑦⑪口口
口口⑩⑥
⑤⑨口口 |④⑤⑥⑦|
口口⑧④ |⑧⑨⑩⑪|
33
口口口① |①-②-|
口口口口 |③---|
口口②口
口口口③

口口⑪⑦
⑥⑩口口
口口⑨⑤ |④⑤⑥⑦|
④⑧口口 |⑧⑨⑩⑪|
34
⑧⑤⑧⑤ |①--②|
④口口② |③-④-|
①口⑦口 |⑤-⑥-|
口⑥③⑥ |⑦-⑧-|
35
⑨⑦口⑩ |①-②③|
⑦②口③ |④⑤⑥-|
②④口⑧ |⑦-⑧-|
⑥⑥①⑤ |⑨-⑩-|
36
口⑥③口 |①②③④|
⑧②口口 |⑤⑥⑦⑧|
口口口⑦ |⑨⑩⑪⑫|
④口①⑤ |⑬⑭⑮⑯|

⑫口口⑬ |①②③④|
口⑯⑨口 |⑤⑥⑦⑧|
⑭口⑪口 |⑨⑩⑪⑫|
口⑩⑮口 |⑬⑭⑮⑯|
37
口⑥①口 |①②③④|
口口⑤口 |⑤⑥⑦⑧|
口②口⑦
④⑧口③

口口⑬口
⑫口口⑨
⑩⑭⑪口 |⑨⑩⑪⑫|
⑯口⑮口 |⑬⑭⑮⑯|
38
②⑬⑭③ |①-②③|
⑫④⑧⑮ |④⑤⑥⑦|
⑤⑨⑦⑪ |⑧⑨⑩⑪|
口⑥⑩① |⑫⑬⑭⑮|
39
③⑭⑬② |①-②③|
⑮④⑧⑫ |④⑤⑥⑦|
⑦⑪⑤⑨ |⑧⑨⑩⑪|
①⑥⑩口 |⑫⑬⑭⑮|
40
②⑩⑥④ |①-②③|
⑪⑦⑬⑨ |-④⑤-|
③⑫⑧⑤ |⑥⑦⑧⑨|
口口口① |⑩⑪⑫⑬|
41
④⑩⑥② |①-②③|
⑬⑨⑪⑦ |-④⑤-|
⑤⑫⑧③ |⑥⑦⑧⑨|
①口口口 |⑩⑪⑫⑬|
42
②⑧⑤③ |①-②③|
口口口口 |-④⑤⑥|
④⑨⑥⑦ |-⑦⑧⑨|
⑫⑪⑩① |-⑩⑪⑫|
43
②口口③ |①-②③|
④⑤⑥⑦ |④⑤⑥⑦|
口口口口
口口口①

口口口口
口口口口
⑧⑨⑩⑪ |⑧⑨⑩⑪|
⑫⑬⑭⑮ |⑫⑬⑭⑮|
44
①⑦⑭② |①-②③|
④⑬⑧③ |-④⑤⑥|
⑤⑨⑫⑥ |⑦⑧⑨⑩|
口⑪⑩口 |⑪⑫⑬⑭|
45
①⑨⑯⑧ |①②③④|
⑦⑪⑭② |⑤⑥⑦⑧|
③⑬⑫⑥ |⑨⑩⑪⑫|
⑤⑮⑩④ |⑬⑭⑮⑯|
46
口口口口 |①---|
口口口口 |②---|
口口口口
①口②②

⑥口④③
口⑤⑦口
口口④③ |③-④⑤|
⑧口⑨口 |⑥⑦⑧⑨|
47
口口口口 |①---|
口口口口 |②---|
口①口②
口①口②

口③口③
⑧⑤⑦口
口⑨④口 |③④⑤⑥|
⑥口⑩口 |⑦⑧⑨⑩|
48
①口①口 |①---|
口口口口 |②---|
口口②口
口口口②

口④⑨③
⑧③⑤口
口口口⑦ |③-④⑤|
⑥口口口 |⑥⑦⑧⑨|
49
①⑧口口 |①②③④|
口⑤⑦⑨ |⑤-⑥⑦|
⑩⑥②口 |⑧⑨⑩⑪|
口③④⑪

口口⑫口
口口口口
口口⑬口
口口口口 |-⑫⑬-|
50
①━━< |①---|
口④⑤③ |②---|
⑧⑥⑦⑨ |③-④⑤|
口②②口 |⑥⑦⑧⑨|
51
①②②口 |①---|
口口口口 |②---|
口口口口 |③④⑤⑥|
>━━① |⑦⑧⑨⑩|

口口口口 |①---|
③⑥⑤口 |②---|
⑩④⑦口 |③④⑤⑥|
口⑧⑨口 |⑦⑧⑨⑩|
52
∨⑧⑤② |①-②③|
┃⑨⑥③ |④-⑤⑥|
┃⑩⑦④ |⑦-⑧⑨|
①口⑪① |⑩-⑪-|
53
②口③① |①-②③|
④⑧⑤┃ |④⑤⑥⑦|
⑥⑨⑦┃ |⑧-⑨-|
①口口∧

口口口口
口口口口
口口口⑩
⑪口口口 |⑩-⑪-|
54
口②①① |①---|
④口口③ |②---|
④口口③ |③---|
口②①口 |④---|
55
口口口口 |①-②-|
口①口口 |----|
口口②口
口口口口

③口口口
口⑤④口
口口口口 |③---|
口口⑤④ |④-⑤-|
56
口口①① |----|
口口口口 |----|
口口口口 |①---|
②②口口 |②---|
57
口口口④ |①-②-|
口③口口 |③---|
口口②口 |④---|
⑤口口① |⑤---|
58
口③①口 |①-②-|
口口口① |③-④-|
③②④口
口③①口

⑤口⑦⑤
口⑥⑧⑦
口口口口 |⑤-⑥-|
⑦口口口 |⑦-⑧-|
59
⑤口⑧④ |①-②-|
①⑥口口 |③-④-|
③口口④ |⑤-⑥-|
⑦②⑤① |⑦-⑧-|
60
口口口口 |①-②-|
①口③① |③-④-|
③口①②
口④口①

⑤口口⑥
口口口口
口口⑧口 |⑤-⑥-|
⑦口口口 |⑦-⑧-|
61
口①①口 |①-②-|
①口口④ |③-④-|
③②口口
口③③口

⑤口口⑧
口⑥⑦口
口⑩⑪口 |⑤⑥⑦⑧|
⑨口口⑫ |⑨⑩⑪⑫|
62
口①①口 |①-②-|
①④口③ |③-④-|
③口口②
口口③口

⑤⑧口⑤
口口⑤口
口口⑦口 |⑤-⑥-|
⑦⑥口⑦ |⑦-⑧-|
63
口口口口 |①-②-|
①②口① |③-④-|
③②口①
口口④口

⑤口⑤⑤
口口⑦⑧
口口⑥⑦ |⑤-⑥-|
⑥口口⑧ |⑦-⑧-|
64
⑦③④⑧ |①②③④|
口口口口 |⑤⑥⑦⑧|
口⑤⑥口 |⑨⑩⑪⑫|
口①②口 |⑬⑭⑮⑯|

口口口口 |①②③④|
⑬⑨⑩⑭ |⑤⑥⑦⑧|
口口口口 |⑨⑩⑪⑫|
⑪⑮⑯⑫ |⑬⑭⑮⑯|
65
⑤⑥⑦⑧ |①②③④|
⑬⑭⑮⑯ |⑤⑥⑦⑧|
①②③④ |⑨⑩⑪⑫|
⑨⑩⑪⑫ |⑬⑭⑮⑯|
66
①⑥④② |①-②③|
⑫⑨⑩⑮ |④⑤⑥⑦|
口⑦⑤③ |⑧⑨⑩⑪|
⑧⑬⑭⑪ |⑫⑬⑭⑮|
67
⑤口口⑥ |①②③④|
口⑤⑥口 |⑤-⑥-|
①③④②
口口口口

口⑨⑧口
⑦口口口
口口口⑩ |⑦-⑧⑨|
⑦⑫⑪口 |⑩⑪⑫-|
68
口口口∨ |①-|
口口口┃
口口口┃
口口口①

②口口口 |②③|
口⑥⑤③ |④⑤⑥⑦|
口④⑦口
口口口②

⑭⑩⑨⑮
口口口口
⑧口口⑪ |⑧⑨⑩⑪|
⑫口口⑬ |⑫⑬⑭⑮|
69
口口口口 |①②③④|
①②③④ |⑤⑥⑦⑧|
⑤⑥⑦⑧
口口口口

⑬⑪⑩⑭
口⑮⑯口
口口口口 |⑨⑩⑪⑫|
口⑨⑫口 |⑬⑭⑮⑯|
70
⑨⑪⑤⑮ |①②③④|
①⑫⑬⑦ |⑤⑥⑦⑧|
⑩③⑥⑧ |⑨⑩⑪⑫|
②④⑭⑯ |⑬⑭⑮⑯|
71
⑩⑫⑥⑯ |①②③④|
②⑪⑭⑧ |⑤⑥⑦⑧|
⑨④⑤⑦ |⑨⑩⑪⑫|
①③⑬⑮ |⑬⑭⑮⑯|
72
⑨⑬⑯⑪ |①②③④|
①⑮⑭③ |⑤⑥⑦⑧|
⑤②④⑦ |⑨⑩⑪⑫|
⑩⑥⑧⑫ |⑬⑭⑮⑯|
73
口口口⑧ |①②③④|
①口口② |⑤⑥⑦⑧|
⑦③④⑥
口⑤口口

⑨⑬⑯口
⑬⑮⑫⑭
口⑮⑯口 |⑨⑩⑪⑫|
⑪口⑭⑩ |⑬⑭⑮⑯|
74
口口口口 |①---|
口口口口 |----|
口口口口 |----|
口①口口 |----|
最終更新:2019年11月26日 18:28