アットウィキロゴ
つぼみ [ 2 ]
達見 恵 featured by 佐野宏晃

EXTREME

Level: 9.1
BPM: 184
Notes(hold): 603(56)

1
口口口口 |----|
口口口口 |----|
口口口口 |----|
口口口口 |----|
2
口⑤口口 |----|
口③口④ |--①-|
口①口② |②-③-|
口口口口 |④-⑤-|
3
②口口① |①---|
口口口口 |②-③-|
口③―< |----|
口口口口 |④-⑤-|

口口口口
口口口⑤
口④口口
口口口口
4
口②口口 |①---|
③口①口 |②---|
口④口口 |③---|
口口口口 |④---|
5
①口①口 |①---|
④①口② |②-③-|
口口口口 |----|
―③口 |④---|
6
口①口③ |①---|
口②②口 |----|
口口口口 |②---|
口口②口 |--③-|
7
口∨②口 |①---|
口|口口 |②-③-|
口③①口 |----|
口口口口 |④-⑤-|

口口口口
⑤口口口
口④口口
口口口口
8
口口②② |①---|
口①④口 |②---|
口④口口 |③---|
③③口口 |④---|
9
①口口 |①-②-|
①<口② |③-④-|
口口③④ |⑤-⑥-|
口口⑤⑥ |⑦-⑧-|

⑧⑤口⑧
⑤⑦⑦口
口口口口
口口口口
10
口口口口 |----|
②③③② |①-②-|
口①①口 |----|
口口口口 |③-④-|

∨口口∨
|口口|
|口口|
④口口④
11
口口口口 |----|
口口口口 |----|
口口口口 |----|
①口口① |①---|
12
⑤②①口 |①-②-|
口④⑥④ |③-④-|
①③口口 |⑤-⑥-|
⑦口⑧口 |⑦-⑧-|
13
⑤①⑦口 |①-②-|
①④⑥④ |③---|
⑦②口③ |④-⑤-|
口口口③ |⑥-⑦-|
14
⑦①口③ |①-②-|
⑦④⑥口 |③-④-|
口②口⑤ |⑤-⑥-|
口口⑤口 |⑦---|
15
口②①⑤ |①-②-|
⑦④口④ |③-④-|
①③⑥口 |⑤-⑥-|
口⑧口口 |⑦-⑧-|
16
⑤①①⑦ |①-②-|
口口④④ |③-④-|
②⑥口口 |⑤-⑥-|
口口③口 |⑦-⑧-|

口口口口
口⑧―<
―⑧口
口口口口
17
口口口② |----|
口①口口 |----|
口口①口 |----|
口口口口 |①-②-|
18
口②①口 |①---|
②口④口 |②-③-|
口③口口 |----|
③口口⑤ |④-⑤-|
19
口口①① |----|
②②口口 |①---|
口口③③ |②---|
口口口口 |③-④-|

④口口口
|口口口
|口口口
∧口口口
20
口口口③ |①---|
口口④① |②---|
口口口⑤ |③-④-|
口②⑥口 |⑤-⑥-|
21
①⑤⑥口 |①---|
口口口口 |②-③-|
②③④口 |④---|
口口口口 |⑤-⑥-|
22
口口口① |①---|
口③口口 |②-③-|
口|口口 |----|
②∧②口 |④-⑤-|

口口口口
口④口口
口口口⑤
口口口口
23
①①口④ |①---|
口口②② |②---|
③③口口 |③---|
口口口口 |④---|
24
口口③口 |①---|
口①口口 |②---|
口|口① |③-④-|
口∧②口 |⑤-⑥-|

⑤口口口
⑥④口④
口口⑤口
口口口⑥
25
口口口① |--①-|
口口②口 |②-③-|
⑦③口④ |④-⑤-|
口⑥⑤口 |⑥-⑦-|
26
口口②② |①---|
①④口口 |②-③-|
口③③⑤ |----|
口口口口 |④-⑤-|
27
①①口口 |----|
口口②② |①---|
③③口口 |②---|
口口口口 |③-④-|

口口口④
口口口|
口口口|
口口口∧
28
③口口⑤ |①---|
①④口口 |②---|
⑤口口口 |③-④-|
口⑥②口 |⑤-⑥-|
29
口②②口 |①---|
③口口口 |②---|
口③①④ |③---|
口口④口 |④---|
30
口口②口 |①---|
口①口① |②-③-|
口③―< |----|
口口口口 |④-⑤-|

口口口⑤
口口口口
口④口口
口口口口
31
口②④口 |①---|
②④口④ |②---|
口口④① |③---|
③③口口 |④---|
32
口口口口 |①---|
口口①口 |②-③-|
口口|口 |④---|
口口∧口 |--⑤-|

口口⑤口
口口②⑤
③④口口
口口口口
33
④⑤口口 |--①-|
口②口口 |②-③-|
口口口口 |--④-|
①口③口 |⑤---|
34
∨口口口 |①---|
④③②① |②---|
③④①② |③---|
口∧口口 |④---|
35
口④口② |--①-|
①口⑤口 |②---|
口①③口 |③---|
口口口口 |④-⑤-|
36
①④①口 |①---|
口口口口 |--②-|
口②口② |③---|
―③口 |④---|
37
⑧口口口 |①-②-|
①②③④ |③-④-|
⑤⑥⑦口 |⑤-⑥-|
口口⑤口 |⑦-⑧-|
38
口口①① |①---|
口②>④ |②---|
口③口③ |③---|
②口④< |④---|
39
口口④口 |--①-|
②口口① |②-③-|
口口③口 |----|
口口①口 |④-⑤-|

口口口口
口口口口
――⑤
口口口口
40
①①口口 |①---|
③①口口 |--②-|
②③口口 |----|
②②口口 |③---|
41
①②⑥口 |--①-|
口⑤③口 |②-③-|
④口口③ |--④-|
口口口口 |⑤-⑥-|
42
①④口① |①---|
∨∨②② |②-③-|
||⑤口 |--④-|
③③口口 |⑤---|
43
口⑥①口 |①-②-|
⑤①③口 |--③-|
⑦④⑦② |④-⑤-|
①①②口 |⑥-⑦-|
44
①口①口 |①---|
⑧⑥口② |②-③④|
口口⑦口 |⑤-⑥-|
⑤④③口 |⑦-⑧-|
45
②口①口 |①-②-|
口⑤③③ |③-④-|
⑦⑦口① |⑤-⑥-|
⑤口④⑥ |⑦-⑧-|

口口口口
口口口口
口口口⑧
口口口口
46
口①口① |①---|
口口口口 |②-③-|
口口②口 |④---|
口口口口 |⑤---|

口口③口
口口|口
口口|口
④⑤∧口
47
口口③口 |①---|
口④口口 |②---|
⑤口③口 |③-④-|
口口①② |⑤---|
48
①―<口 |①---|
①―<口 |②---|
口口口口 |③---|
口口口口 |④---|

②口口口
②>―③
口>―③
口口②口

口④口口
口口口④
口口口④
口口口口
49
口口口口 |①---|
口口口口 |②---|
①―<口 |③---|
①―<口 |④---|

口口③口
口③②口
②口④口
②④口口
50
①口口口 |①---|
|口口口 |②-③-|
|②口口 |④---|
∧口③口 |⑤-⑥-|

口④口口
口|口口
口∧口⑤
口口口⑥
51
口口①④ |①---|
口口∧∧ |②-③-|
口②③口 |④---|
口口口口 |⑤-⑥-|

⑤⑤⑤⑤
口⑤⑤口
⑥口口口
口口口口
52
口口口口 |①---|
口口∨② |②-③-|
口②|① |----|
口口③口 |④-⑤-|

④④口口
口口口口
⑤―<口
口口④口
53
口口①② |----|
口③口① |①---|
①②口口 |②---|
口口口③ |③---|
54
①③③口 |①---|
①口①④ |②-③-|
口⑤①② |--④-|
④口⑤口 |⑤-⑥-|

⑥口口⑥
口口口口
口口口口
口口口口
55
口口⑥口 |--①-|
①③口⑤ |②-③-|
口⑦④⑦ |④-⑤-|
口②口口 |⑥-⑦-|
56
口①口① |①---|
②口⑥⑧ |②-③④|
口⑦口口 |⑤-⑥-|
口③④⑤ |⑦-⑧-|
57
口①口② |①-②-|
③③⑤口 |③-④-|
①口⑦⑦ |⑤-⑥-|
⑥④口⑤ |⑦-⑧-|

口口口口
口口口口
⑧口口口
口口口口
58
①口①口 |①---|
口口口口 |②-③-|
口②口口 |④---|
口口口口 |⑤---|

口③口口
口|口口
口|口口
口∧⑤④
59
口③口口 |①---|
口口④口 |②---|
口③口⑤ |③-④-|
②①口口 |⑤---|
60
口>―① |①---|
口>―① |②---|
口口口口 |③---|
口口口口 |④---|

口口口②
③―<②
③―<口
口②口口

口口④口
④口口口
④口口口
口口口口
61
口口口口 |①---|
口口口口 |②---|
口>―① |③---|
口>―① |④---|

口③口口
口②③口
口④口②
口口④②
62
口口口① |①---|
口口口| |②-③-|
口口②| |④---|
口③口∧ |⑤-⑥-|

口口④口
口口|口
⑤口∧口
⑥口口口
63
④①口口 |①---|
∧∧口口 |②-③-|
口③②口 |④---|
口口口口 |⑤-⑥-|

⑤⑤⑤⑤
口⑤⑤口
口口口⑥
口口口口
64
口口口口 |①---|
②∨口口 |②-③-|
①|②口 |----|
口③口口 |--④-|

口口④④
口口口口
口口口口
口④口口
65
④②口口 |①---|
口①④③ |②---|
②③口口 |③---|
口口口① |④---|
66
――① |①---|
③④⑤⑥ |②---|
口口口口 |③-④-|
②口①口 |⑤-⑥-|
67
口口口⑦ |①-②-|
口口⑧口 |③-④-|
①②③④ |⑤-⑥-|
⑤⑥⑦口 |⑦-⑧-|
68
②②②⑥ |①---|
④④口口 |②-③-|
①①口③ |④---|
⑤⑤口① |⑤-⑥-|
69
②②口口 |①---|
③③①② |②---|
①①④口 |③---|
④④口③ |④---|
70
②②①① |①---|
口口|| |②---|
①①|| |③---|
口口∧∧ |④-⑤-|

口口③③
③③④④
口口口口
⑤⑤<
71
口口口② |----|
①口口口 |--①-|
口口口口 |----|
口①①口 |②-③-|

口口口∨
口口口|
口口口③
口口口口
72
⑤②口口 |①-②-|
口④⑥口 |③-④-|
①③口口 |⑤-⑥-|
⑦口⑧口 |⑦-⑧-|
73
⑤①⑦口 |①-②-|
①④⑥④ |③---|
⑦②③③ |④-⑤-|
口口口口 |⑥-⑦-|
74
⑦①口③ |①-②-|
⑦④⑥口 |③-④-|
口②口⑤ |⑤-⑥-|
口口⑤口 |⑦---|
75
口②①⑤ |①-②-|
⑦④口④ |③-④-|
①③⑥口 |⑤-⑥-|
口⑧口口 |⑦-⑧-|
76
⑤①①⑦ |①-②-|
口口④④ |③-④-|
②⑥口口 |⑤-⑥-|
口口③口 |⑦-⑧-|

口口口口
口⑧―<
―⑧口
口口口口
77
口口口口 |----|
口口口口 |----|
口口口口 |----|
口口口口 |----|
78
口口口口 |----|
口口口口 |----|
口口口口 |----|
口口口口 |----|
79
口口口口 |①---|
口①口① |----|
①口①口 |----|
口口口口 |----|
最終更新:2019年11月08日 03:45