アットウィキロゴ
タンポポ
豚乙女

BASIC

Level: 3
BPM: 206
Notes: 242

1
口口口口 |----|
口口口口 |----|
口口口口 |----|
口口口口 |----|
2
口口口口 |①---|
口口口口 |----|
口②①口 |②---|
口口口口 |----|
3
口口口口 |①---|
口②①口 |----|
口口口口 |②---|
口口口口 |----|
4
口口②① |①---|
口口口口 |----|
口口口口 |②---|
口口口口 |----|
5
②①口口 |①---|
口口口口 |----|
口口口口 |②---|
口口口口 |----|
6
口口口口 |①---|
①口口口 |----|
②口口口 |②---|
口口口口 |----|
7
口口口口 |①---|
口口口口 |----|
口口口口 |----|
①口口口 |----|
8
①②口口 |①---|
口口口口 |----|
口口口口 |②---|
口口口口 |----|
9
口口①② |①---|
口口口口 |----|
口口口口 |②---|
口口口口 |----|
10
口口口口 |①---|
口口口① |----|
口口口② |②---|
口口口口 |----|
11
口口口口 |①---|
口口口口 |----|
口口口口 |----|
口口口① |----|
12
口口口口 |①---|
口口口口 |②---|
口③②① |③---|
口口口口 |----|
13
口①口口 |①---|
口口口口 |----|
口口口口 |----|
口口口口 |----|
14
口口口口 |①---|
口口口口 |②---|
①②③口 |③---|
口口口口 |----|
15
口口①口 |①---|
口口口口 |----|
口口口口 |----|
口口口口 |----|
16
口口口口 |①---|
口③②① |②---|
口口口口 |③---|
口口口口 |----|
17
口口口① |①---|
口口口口 |----|
口口口口 |----|
口口口口 |----|
18
口口口口 |①---|
①②③口 |②---|
口口口口 |③---|
口口口口 |----|
19
①口口口 |①---|
口口口口 |----|
口口口口 |----|
口口口口 |----|
20
口②①口 |①---|
口口口口 |----|
口口口口 |②---|
口口口口 |----|
21
口口口口 |①---|
口②①口 |----|
口口口口 |②---|
口口口口 |----|
22
口口口口 |①---|
口口口口 |----|
口②①口 |②---|
口口口口 |----|
23
口口口口 |①---|
口口口口 |----|
口口口口 |②---|
口②①口 |----|
24
②口口① |①---|
口口口口 |----|
口口口口 |②---|
口口口口 |----|
25
口口口口 |①---|
②口口① |----|
口口口口 |②---|
口口口口 |----|
26
口口口口 |①---|
口口口口 |----|
②口口① |②---|
口口口口 |----|
27
口口口口 |①---|
口口口口 |----|
口口口口 |②---|
②口口① |----|
28
口口口口 |①---|
口口口口 |----|
口口口口 |----|
口①①口 |----|
29
口口口口 |①---|
口口口口 |----|
口①①口 |----|
口口口口 |----|
30
口口口口 |①---|
口①①口 |----|
口口口口 |----|
口口口口 |----|
31
口①①口 |①---|
口口口口 |----|
口口口口 |----|
口口口口 |----|
32
①口口① |①---|
口口口口 |----|
口口口口 |----|
口口口口 |----|
33
口口口口 |①---|
口①①口 |----|
口②②口 |②---|
口口口口 |----|
34
口口①口 |①---|
口②口口 |----|
口口口口 |②---|
口口口口 |----|
35
口口②② |①---|
口口口口 |----|
口口①口 |②---|
口口口口 |----|
36
口①口口 |①---|
口口②口 |----|
口口口口 |②---|
口口口口 |----|
37
②②口口 |①---|
口口口口 |----|
口①口口 |②---|
口口口口 |----|
38
口口口① |①---|
口口②口 |----|
口口口口 |②---|
口口口口 |----|
39
口口口口 |①---|
口口口口 |----|
口①口口 |②---|
②口口口 |----|
40
口口口口 |①---|
①口口口 |----|
口②口口 |②---|
口口口口 |----|
41
口口口口 |①---|
口口口② |----|
口口①口 |②---|
口口口口 |----|
42
口①①口 |①---|
口口口口 |----|
口②口口 |②---|
口口口口 |----|
43
口口口口 |①---|
口口①① |----|
口口口口 |②---|
口②口口 |----|
44
口口口口 |①---|
①口口口 |----|
口②口口 |②---|
口口口口 |----|
45
口①口① |①---|
口②口② |②---|
口③口③ |③---|
口口口口 |----|
46
①口口口 |①---|
口②口口 |----|
口口口口 |②---|
口口口口 |----|
47
口口口口 |①---|
口口口口 |----|
口口①口 |②---|
口口口② |----|
48
口口口口 |①---|
口口口① |----|
口口②口 |②---|
口口口口 |----|
49
口口口口 |①---|
②口口口 |----|
口①口口 |②---|
口口口口 |----|
50
口①①口 |①---|
口口口口 |----|
口②口口 |②---|
口口口口 |----|
51
口口口口 |①---|
口口①① |----|
口口口口 |②---|
口②口口 |----|
52
口口口口 |①---|
口口口① |----|
口口②口 |②---|
口口口口 |----|
53
①口①口 |①---|
②口②口 |②---|
③口③口 |③---|
口口口口 |----|
54
口①①口 |①---|
口口口口 |----|
口口口② |----|
口口口口 |②---|
55
口①①口 |①---|
口口口口 |----|
②口口口 |----|
口口口口 |②---|
56
口①①口 |①---|
口②②口 |----|
口口口口 |②---|
口口口口 |----|
57
①口口① |①---|
②口口② |②---|
③口口③ |③---|
口口口口 |----|
58
口②①口 |①---|
口口口口 |----|
口口口口 |②---|
口口口口 |----|
59
口口口口 |①---|
口②①口 |----|
口口口口 |②---|
口口口口 |----|
60
口口口口 |①---|
口口口口 |----|
口②①口 |②---|
口口口口 |----|
61
口口口口 |①---|
②②口口 |----|
③③口口 |②---|
口口①口 |③---|
62
口①②口 |①---|
口口口口 |----|
口口口口 |②---|
口口口口 |----|
63
口口口口 |①---|
口①②口 |----|
口口口口 |②---|
口口口口 |----|
64
口口口口 |①---|
③口口口 |----|
口①②口 |②---|
口口口口 |--③-|
65
口口口口 |--①-|
口口①口 |--②-|
②口③口 |--③-|
口口口口 |----|
66
口①①口 |①---|
口②②口 |----|
口口口口 |②---|
口口口口 |----|
67
口口口口 |①---|
①口口① |----|
口口口口 |②---|
②口口② |----|
68
口口①口 |①---|
口②口口 |----|
口口口口 |②---|
口口口口 |----|
69
口口口口 |①---|
口口口口 |----|
口口①口 |②---|
口②口口 |----|
70
口口口口 |①---|
口口①① |----|
口口口口 |②---|
口②口口 |----|
71
口口口口 |①---|
口口口口 |----|
②口①① |②---|
口口口口 |----|
72
口口口口 |①---|
口口①口 |----|
口②口口 |②---|
口口口口 |----|
73
①口①口 |①---|
②口②口 |②---|
③口③口 |③---|
口口口口 |----|
74
口②①口 |①---|
口④③口 |②---|
口口口口 |③---|
口口口口 |④---|
75
口口口口 |①---|
口口口口 |②---|
口②①口 |③---|
口④③口 |④---|
76
口口口口 |①---|
口口口口 |②---|
④口口③ |③---|
②口口① |④---|
77
④口口③ |①---|
②口口① |②---|
口口口口 |③---|
口口口口 |④---|
78
口①①口 |①---|
口口口口 |----|
口②②口 |②---|
口口口口 |----|
79
口口口口 |①---|
①口口① |----|
口口口口 |②---|
②口口② |----|
80
口口①口 |①---|
口②口口 |②---|
口口③口 |③---|
口④口口 |④---|
81
口口口口 |①---|
口口①① |②---|
②②口④ |③---|
口口③③ |④---|
82
口①①口 |①---|
口口口口 |----|
②口口口 |----|
口口口口 |②---|
83
口①①口 |①---|
口口口口 |----|
口口口② |----|
口口口口 |②---|
84
口①①口 |①---|
口口口口 |----|
口②②口 |②---|
口口口口 |----|
85
①口口① |①---|
②口口② |②---|
③口口③ |③---|
口口口口 |----|
86
口口口口 |①---|
口①①口 |----|
口口口口 |②---|
口②②口 |----|
87
口①①口 |①---|
口②②口 |②---|
口③③口 |③---|
口口口口 |----|

accuracy: 100%
最終更新:2022年05月07日 17:48