アットウィキロゴ
タンポポ
豚乙女

ADVANCED

Level: 7
BPM: 206
Notes: 505

1
口口口口 |----|
口口口口 |----|
口口口口 |----|
口口口口 |----|
2
②口口口 |①---|
②口口口 |----|
口口①① |②---|
口口口口 |----|
3
口口口① |①---|
口口②口 |②---|
口③口口 |③---|
口口口口 |----|
4
口①口口 |①---|
口②口口 |②---|
口口③口 |③---|
口口④口 |④---|
5
口口③口 |①---|
口口口③ |②---|
①②口口 |③---|
口口口口 |----|
6
口①口口 |①---|
口②口口 |②---|
口口③口 |③---|
口口④口 |④---|
7
①③①口 |①---|
口口口口 |--②-|
口②③② |----|
口口口口 |③---|
8
口口①口 |①---|
口③②口 |②---|
口口口口 |③---|
口④口口 |④---|
9
口③口口 |①---|
③口口口 |②---|
口口②① |③---|
口口口口 |----|
10
口口①口 |①---|
口口②口 |②---|
口③口口 |③---|
口④口口 |④---|
11
口①③① |①---|
口口口口 |--②-|
②③②口 |----|
口口口口 |③---|
12
口口口④ |①---|
①②③口 |②---|
口口⑤口 |③---|
口口口口 |④-⑤-|
13
①①口口 |----|
口口口③ |①---|
口②口口 |②---|
口口口口 |③---|
14
④口口口 |①---|
口口口口 |②---|
口⑤口口 |③---|
③②①口 |④-⑤-|
15
口口①① |----|
口口口口 |①---|
口口口口 |②---|
口②②口 |----|
16
口②口口 |①---|
口④口⑤ |②---|
①口③口 |③---|
口口口口 |④-⑤-|
17
口口①① |----|
③口口口 |①---|
口口口口 |②---|
口②口口 |③---|
18
口③口口 |①---|
口⑤口④ |②---|
②口①口 |③---|
口口口口 |④-⑤-|
19
口口①① |----|
口口口口 |①---|
口口口口 |②---|
口②②口 |----|
20
④口口口 |①---|
①口③口 |②---|
⑤②口口 |③---|
口口口口 |④-⑤-|
21
口口①口 |----|
口②口① |①---|
口口口口 |②---|
口口③口 |③---|
22
口口口口 |①---|
口口②④ |②---|
口③口① |③---|
口口口⑤ |④-⑤-|
23
口①口口 |----|
①口口口 |①---|
口口口口 |②---|
口②②口 |----|
24
①④口口 |①---|
口②口口 |②---|
口⑤③口 |③---|
口口口口 |④-⑤-|
25
口口③口 |----|
口口口① |①---|
②口口① |②---|
口口口口 |③---|
26
口口④① |①---|
口口②口 |②---|
口③⑤口 |③---|
口口口口 |④-⑤-|
27
口①口口 |----|
①口口口 |①---|
口口口口 |②---|
口②②口 |----|
28
口④口① |--①-|
口②口⑤ |-②--|
口口口③ |③--④|
口口口口 |--⑤-|
29
④口⑤⑤ |①--②|
①口③口 |--③-|
口口口口 |④---|
口②口口 |⑤---|
30
口⑤⑤口 |①---|
②口口④ |②-③-|
口口①① |--④-|
口③口口 |--⑤-|
31
口口口③ |--①-|
口②口口 |----|
口①①口 |②---|
口口口口 |③---|
32
①口口口 |--①-|
口③口口 |--②-|
口口④② |③--④|
口⑤口口 |--⑤-|
33
③口①口 |①--②|
口口④口 |--③-|
⑤②口口 |④---|
口口口口 |⑤---|
34
口①口① |①---|
口②口② |②---|
口③口③ |③---|
口④口④ |④---|
35
①②③口 |①---|
①②③口 |②---|
口口口口 |③---|
口口口口 |----|
36
④口④口 |①---|
③口③口 |②---|
②口②口 |③---|
①口①口 |④---|
37
口口口口 |①---|
口口口口 |②---|
口③②① |③---|
口③②① |----|
38
口①①① |①---|
口口③口 |--②-|
口口口口 |--③-|
②口④口 |④---|
39
口⑤口口 |①-②-|
⑤口口⑥ |③-④-|
①②③④ |--⑤-|
口口口口 |--⑥-|
40
口口口口 |①---|
口口②口 |②-③-|
④⑤⑥口 |--④-|
口③①口 |⑤-⑥-|
41
口①②口 |①-②-|
口③④口 |③-④-|
口口口口 |----|
口口口口 |----|
42
口①口① |①---|
②口④口 |②-③-|
口口口口 |--④-|
口③口⑤ |⑤---|
43
口④口② |①---|
口①口① |②-③-|
⑤口③口 |--④-|
口口口口 |⑤---|
44
口口⑥口 |①-②-|
口①口② |③-④-|
口③口④ |⑤---|
口⑤口口 |⑥---|
45
口口口口 |①---|
①①①口 |②---|
②②②口 |③---|
③③③口 |----|
46
①①①口 |①---|
口③口口 |--②-|
口口口口 |--③-|
口④口② |④---|
47
口口⑤口 |①-②-|
⑥口口⑤ |③-④-|
④③②① |--⑤-|
口口口口 |--⑥-|
48
口口口口 |①---|
口②口口 |②-③-|
口⑥⑤④ |--④-|
口①③口 |⑤-⑥-|
49
口②①口 |①-②-|
口④③口 |③-④-|
口口口口 |----|
口口口口 |----|
50
①口①口 |①---|
口④口② |②-③-|
口口口口 |--④-|
⑤口③口 |⑤---|
51
②口④口 |①---|
①口①口 |②-③-|
口③口⑤ |--④-|
口口口口 |⑤---|
52
口⑥口口 |①-②-|
②口①口 |③-④-|
④口③口 |⑤---|
口口⑤口 |⑥---|
53
口口口口 |①---|
口①①① |②---|
④②②② |③---|
口③③③ |④---|
54
①②口① |①---|
口口口口 |②---|
口口口④ |③---|
口③口口 |④---|
55
①口②① |①---|
口口口口 |②---|
④口口口 |③---|
口口③口 |④---|
56
③①③① |①---|
口口口口 |②---|
口口口② |③---|
口④④口 |④---|
57
口口口口 |①---|
①③③① |②---|
口③③口 |③---|
②口口② |----|
58
①②③④ |①---|
口口口口 |②---|
口口口口 |③---|
口口口口 |④---|
59
⑦口⑧口 |①-②-|
⑤口⑥口 |③-④-|
③口④口 |⑤-⑥-|
①口②口 |⑦-⑧-|
60
口口口口 |①---|
口口口口 |②---|
口口口口 |③---|
①②③④ |④---|
61
口⑤口口 |①-②-|
⑤①口② |③-④-|
口③⑥④ |⑤---|
口⑥口口 |⑥---|
62
④③②① |①---|
口口口口 |②---|
口口口口 |③---|
口口口口 |④---|
63
口⑧口⑦ |①-②-|
口⑥口⑤ |③-④-|
口④口③ |⑤-⑥-|
口②口① |⑦-⑧-|
64
口口口口 |①---|
⑤⑤口口 |②---|
口口口口 |③---|
④③②① |④-⑤-|
65
②③④口 |--①-|
口口①① |--②-|
②③④口 |--③-|
口口口口 |--④-|
66
口口口口 |①---|
①①③口 |--②-|
口④口口 |--③-|
⑤口②② |④-⑤-|
67
④口口① |①--②|
口②⑤口 |--③-|
⑥口口③ |④--⑤|
口口口口 |--⑥-|
68
口口①口 |①---|
口②口① |②-③-|
口⑥⑤④ |--④-|
口口③口 |⑤-⑥-|
69
口②①⑤ |①-②-|
口④③口 |③-④-|
口口口口 |----|
口口口口 |⑤---|
70
①口①口 |①---|
口④口② |②-③-|
口口口口 |--④-|
⑤口③口 |⑤---|
71
②口④口 |①---|
①口①口 |②-③-|
口③口⑤ |--④-|
口口口口 |⑤---|
72
口⑥口口 |①-②-|
②口①口 |③-④-|
④口③口 |⑤---|
口口⑤口 |⑥---|
73
口口口口 |①---|
口①①① |②---|
④②②② |③---|
口③③③ |④---|
74
口①①① |①---|
②口③口 |②-③-|
口口口口 |--④-|
口④⑤⑥ |⑤-⑥-|
75
口④④口 |①-②-|
口口口⑥ |③-④-|
口③②① |--⑤-|
⑤⑤口口 |--⑥-|
76
口口口口 |①---|
口口②口 |②-③-|
④⑤⑥口 |--④-|
口口①③ |⑤-⑥-|
77
口①②口 |①-②-|
⑤③④⑥ |③-④-|
口口口口 |⑤---|
口口口口 |⑥---|
78
口①口① |①---|
口②④口 |②-③-|
⑥口口口 |--④-|
口⑤③口 |⑤-⑥-|
79
①口①口 |①---|
口②口口 |②-③-|
口⑥⑤④ |--④-|
口口③口 |⑤-⑥-|
80
④③②① |①-②-|
口口口⑤ |③-④-|
口口口口 |⑤---|
口口口⑥ |⑥---|
81
口口口口 |①---|
①①①口 |②---|
④②②② |③---|
③③③口 |④---|
82
①②口① |①---|
口口口口 |②---|
口口口④ |③---|
口③口口 |④---|
83
①口②① |①---|
口口口口 |②---|
④口口口 |③---|
口口③口 |④---|
84
③①③① |①---|
口口口口 |②---|
口口口② |③---|
口④④口 |④---|
85
④口口④ |①---|
①③③① |②---|
口③③口 |③---|
②口口② |④---|
86
口口口口 |①---|
③口口③ |②---|
①口口① |③---|
④②②④ |④---|
87
口①①口 |①---|
④②②④ |②---|
口③③口 |③---|
口口口口 |④---|

accuracy: 100%
最終更新:2022年05月07日 17:59