アットウィキロゴ
タンポポ
豚乙女

EXTREME

Level: 9.8
BPM: 206
Notes: 718

1
口口口口 |----|
口口口口 |----|
口口口口 |----|
口口口口 |----|
2
口口口② |①---|
①口口口 |----|
口②口口 |②---|
口口①口 |----|
3
口口①口 |①---|
口③②③ |②---|
口口①口 |③---|
口口口口 |----|
4
口①⑤口 |①-②-|
①口⑤口 |③-④-|
⑥②⑦④ |⑤---|
口口③口 |⑥-⑦-|
5
④①口④ |①-②-|
口②口口 |③---|
口③口口 |④---|
⑤口口口 |⑤---|
6
口⑤①口 |①-②-|
口⑤口① |③-④-|
④⑦②⑥ |⑤---|
口③口口 |⑥-⑦-|
7
③口③① |①-②-|
口口②⑥ |--③-|
口口⑤口 |--④-|
口④口口 |⑤-⑥-|
8
口①⑤口 |①-②-|
①口⑤口 |③-④-|
⑥②⑦④ |⑤---|
口口③口 |⑥-⑦-|
9
④①口④ |①-②-|
口②口口 |③---|
口③口口 |④---|
⑤口口口 |⑤---|
10
口⑤①口 |①-②-|
口⑤口① |③-④-|
④⑦②⑥ |⑤---|
口③口口 |⑥-⑦-|
11
③口③① |①-②-|
口口②⑥ |--③-|
口口⑤口 |--④-|
口④口口 |⑤-⑥-|
12
③③③口 |①---|
②②口口 |②---|
①口口④ |③---|
口⑤口口 |④-⑤-|
13
口③③口 |--①-|
口口①口 |②---|
④④口口 |③---|
口口口② |④---|
14
①口④③ |①---|
口①口③ |②---|
口⑤①口 |③---|
②②口口 |④-⑤-|
15
③③口口 |--①-|
口口①口 |②---|
②口口口 |③---|
④口口口 |④---|
16
④③口③ |①---|
②③②③ |②---|
⑤②①① |③---|
口口①① |④-⑤-|
17
口口①口 |--①-|
③口③口 |②---|
口口②口 |③---|
④④口口 |④---|
18
④①口① |①---|
③①③① |②---|
⑤③②② |③---|
口口②② |④-⑤-|
19
口⑦①⑤ |--①-|
口②⑥口 |②-③-|
口口③口 |④-⑤-|
口④口口 |⑥-⑦-|
20
口口③口 |①---|
②④口口 |②---|
③②口口 |③---|
口⑤①① |④-⑤-|
21
③③口① |--①-|
口口口口 |②---|
口口②口 |③---|
口口④④ |④---|
22
口口④③ |①---|
口口②口 |②---|
口③⑤② |③---|
①①口口 |④-⑤-|
23
①②口⑤ |--①-|
③④口口 |②-③-|
口口口口 |④---|
口口口口 |⑤---|
24
口③口口 |①---|
口口④② |②---|
口口②③ |③---|
①①⑤口 |④-⑤-|
25
①口④④ |--①-|
③口口口 |②-③-|
口②⑤⑤ |④---|
口口口口 |⑤---|
26
④④口口 |①---|
口②③口 |②---|
②⑤口口 |③---|
口①①③ |④-⑤-|
27
⑤口②① |--①-|
口口④③ |②-③-|
口口口口 |④---|
口口口口 |⑤---|
28
⑤口③口 |①-②-|
②口口口 |-③--|
②⑥口④ |④--⑤|
口①①口 |--⑥-|
29
口⑤口⑤ |①--②|
③口①① |--③-|
口口④口 |④---|
口②口口 |⑤---|
30
②口④口 |①---|
口口①④ |②-③-|
口③口口 |--④-|
⑤⑤①口 |--⑤-|
31
口④口④ |①-②-|
②②④口 |----|
口口①① |③---|
口口③口 |④---|
32
⑥口②口 |①-②-|
③口口② |--③-|
①口口⑤ |④--⑤|
口④口口 |--⑥-|
33
口④口⑤ |①--②|
口④③③ |--③-|
②②①口 |④---|
口口①口 |⑤---|
34
口口⑦⑦ |①-②-|
⑤⑤⑧④ |③-④-|
②⑥③③ |⑤-⑥-|
①①口口 |⑦-⑧-|
35
③②口口 |①---|
口口口口 |②---|
④口口口 |③---|
②③①① |④---|
36
③口②① |①---|
②④①④ |②---|
④①②③ |③---|
口口③口 |④---|
37
口口②③ |①---|
口口口口 |②---|
口口口口 |③---|
①①③② |----|
38
①①口口 |①---|
①⑤②② |②-③-|
④口⑥口 |--④-|
口③口口 |⑤-⑥-|
39
③②①口 |①-②-|
⑥口④口 |③-④-|
口①口④ |--⑤-|
⑤⑤口口 |--⑥-|
40
口⑥②口 |①---|
口口⑤① |②-③-|
口③①④ |--④-|
口口口口 |⑤-⑥-|
41
⑤口⑤口 |①-②-|
口③口① |③-④-|
②口④口 |----|
口①口口 |⑤---|
42
口口口① |①---|
②⑤①口 |②-③-|
⑥口④⑤ |--④-|
口③③口 |⑤-⑥-|
43
②⑤①口 |①---|
⑥口④① |②-③-|
口③⑤口 |--④-|
口口口③ |⑤-⑥-|
44
口口⑤⑤ |①-②-|
口口口⑤ |③-④-|
⑥⑥口⑦ |⑤---|
①②③④ |⑥-⑦-|
45
①①口口 |①---|
②④③口 |②---|
口⑤口口 |③---|
②⑥③口 |④⑤⑥-|
46
口②②口 |①---|
口口⑤① |②-③-|
③口①① |--④-|
口⑥口④ |⑤-⑥-|
47
①口④④ |①-②-|
⑤口口口 |③-④-|
口③②① |--⑤-|
⑥口⑤口 |--⑥-|
48
②②口口 |①---|
口口①① |②-③-|
③口⑤口 |--④-|
口④口⑥ |⑤-⑥-|
49
口③⑤② |①-②-|
①口⑥口 |③-④-|
口①⑦④ |----|
口口口口 |⑤⑥⑦-|
50
①口口口 |①---|
口①⑤② |②-③-|
⑤④口⑥ |--④-|
口③③口 |⑤-⑥-|
51
口①⑤② |①---|
①④口⑥ |②-③-|
口⑤③口 |--④-|
③口口口 |⑤-⑥-|
52
⑤⑤口口 |①-②-|
⑤口口口 |③-④-|
口口⑥⑥ |⑤---|
④③②① |⑥---|
53
口③①③ |①---|
③口口① |②---|
①②口口 |③---|
口④②② |④---|
54
①口①口 |①---|
口口③⑤ |②-③-|
口口④② |④-⑤-|
口口⑥口 |⑥---|
55
口①口① |①---|
⑤③口口 |②-③-|
②④口口 |④-⑤-|
口⑥口口 |⑥---|
56
①③①③ |①---|
口口口口 |②---|
口④④口 |③---|
口口②口 |④---|
57
①口②口 |①---|
③③③③ |②---|
口④④口 |③---|
①口②口 |④---|
58
口口口口 |①-②-|
⑧⑦⑥⑤ |③-④-|
①口口④ |⑤-⑥-|
口②③口 |⑦-⑧-|
59
⑦⑤③① |①-②-|
口口口口 |③-④-|
口口口口 |⑤-⑥-|
⑧⑥④② |⑦-⑧-|
60
口口口口 |①-②-|
⑤③⑦① |③-④-|
④⑥②⑧ |⑤-⑥-|
口口口口 |⑦-⑧-|
61
⑥③①⑤ |①-②-|
口口口口 |③-④-|
口口口口 |⑤---|
⑥④②⑤ |⑥---|
62
口口①口 |①-②-|
口⑤⑥② |③-④-|
口⑦⑧③ |⑤-⑥-|
口口④口 |⑦-⑧-|
63
①③⑤⑦ |①-②-|
口口口口 |③-④-|
口口口口 |⑤-⑥-|
②④⑥⑧ |⑦-⑧-|
64
口口口口 |①-②-|
①⑦③⑤ |③-④-|
⑧②⑥④ |⑤-⑥-|
口口口口 |⑦-⑧-|
65
④②①③ |--①-|
口④③口 |--②-|
口③④口 |--③-|
口①②口 |--④-|
66
口③口口 |①-②-|
①口口① |--③-|
③④口⑥ |--④-|
②口⑤② |⑤-⑥-|
67
①口④⑤ |①-②③|
③⑥⑦① |④-⑤-|
⑤⑧②口 |⑥-⑦⑧|
口⑨口⑦ |--⑨-|
68
①①口口 |①---|
口⑤口② |②-③-|
④口⑥口 |--④-|
口口③口 |⑤-⑥-|
69
口口①① |①-②-|
②⑤③口 |③-④-|
口⑥口口 |----|
④⑦口口 |⑤⑥⑦-|
70
口口①口 |①---|
②⑤口① |②-③-|
⑥口④⑤ |--④-|
③口③口 |⑤-⑥-|
71
②⑤①口 |①---|
⑥口④① |②-③-|
口③⑤口 |--④-|
口口口③ |⑤-⑥-|
72
口口⑤⑤ |①-②-|
口口口⑤ |③-④-|
⑥⑥口口 |⑤---|
①②③④ |⑥---|
73
①口口口 |①---|
②口②口 |②---|
口口口①
②口口口

口③③口
口口口口
④⑤⑥⑦ |③---|
口③③口 |④⑤⑥⑦|
74
①⑤口口 |①-②-|
口①③② |③-④-|
口口口口 |⑤-⑥-|
⑧⑦⑥④ |⑦-⑧-|
75
口口④⑧ |①-②-|
⑤②口④ |③-④-|
③⑥①⑦ |⑤-⑥-|
口口⑥口 |⑦-⑧-|
76
口③⑧口 |①-②-|
口⑦②⑤ |③-④-|
⑥口④口 |⑤-⑥-|
①①口口 |⑦-⑧-|
77
口⑦口口 |①-②-|
⑤⑧口口 |③-④-|
口⑨⑥口 |⑤-⑥-|
①②③④ |⑦⑧⑨-|
78
③口口① |①-②-|
口⑧①口 |③-④-|
④口⑦口 |⑤-⑥-|
②⑥口⑤ |⑦-⑧-|
79
口②①口 |①-②-|
④⑧⑤① |③-④-|
⑥③⑦口 |⑤-⑥-|
口口口口 |⑦-⑧-|
80
⑤⑤口口 |①-②-|
⑤口口口 |③-④-|
口口⑥⑥ |⑤---|
④③②① |⑥---|
81
口③①③ |①---|
③口口① |②---|
①②口口 |③---|
口④②② |④---|
82
①口①口 |①---|
口口③⑤ |②-③-|
口口④② |④-⑤-|
口口⑥口 |⑥---|
83
口①口① |①---|
⑤③口口 |②-③-|
②④口口 |④-⑤-|
口⑥口口 |⑥---|
84
①③①③ |①---|
口口口口 |②---|
口④④口 |③---|
口口②口 |④---|
85
①口②口 |①---|
③③③③ |②---|
口④④口 |③---|
①口②口 |④---|
86
⑧①③口 |①-②-|
口口⑤⑤ |③-④-|
③⑦⑦① |⑤-⑥-|
⑥②④口 |⑦-⑧-|
87
口②④① |①---|
③③③③ |②---|
口④口口 |③---|
口②口① |④---|

accuracy: 100%
最終更新:2022年05月07日 18:20