アットウィキロゴ
ROCK ju
C-Show

BASIC

Level: 4
BPM: 175
Notes: 318

1
口口口口 |----|
口口口口 |----|
口口口口 |----|
口口口口 |----|
2
口口口口 |----|
口口口口 |----|
口口口口 |----|
口口口口 |----|
3
口口口口 |①---|
口②②口 |--②-|
口①①口 |----|
口口口口 |----|
4
口口口口 |①---|
②口口② |--②-|
①口口① |----|
口口口口 |----|
5
口①①口 |①---|
口②②口 |--②-|
③口口③ |----|
口口口口 |--③-|
6
口口口口 |----|
口口口口 |----|
口口口口 |----|
口口口口 |----|
7
口口口口 |①---|
口②②口 |--②-|
口①①口 |----|
口口口口 |----|
8
口口口口 |①---|
②口口② |--②-|
①口口① |----|
口口口口 |----|
9
口①①口 |①---|
口②②口 |--②-|
③口口③ |----|
口口口口 |--③-|
10
口口口口 |----|
口口口口 |----|
口口口口 |----|
口口口口 |----|
11
口口口口 |①---|
④③②① |②---|
口口口口 |③---|
口口口口 |④---|
12
口口口口 |①---|
口口口口 |②---|
④③②① |③---|
口口口口 |④---|
13
口口口口 |①---|
口口口口 |②---|
口口口口 |③---|
④③②① |④---|
14
口口口口 |①---|
③口①③ |②---|
口②口口 |③---|
④口口④ |④---|
15
口口口口 |①---|
口口口口 |②---|
①②③④ |③---|
口口口口 |④---|
16
口口口口 |①---|
①②③④ |②---|
口口口口 |③---|
口口口口 |④---|
17
①②③④ |①---|
口口口口 |②---|
口口口口 |③---|
口口口口 |④---|
18
口口口口 |①---|
②①①② |----|
口口口口 |②---|
口③③口 |③---|
19
②口口口 |①---|
③口口口 |----|
口①①口 |②---|
口口口口 |③---|
20
口口口口 |①---|
口口④口 |②---|
①②③口 |③---|
口口口口 |④---|
21
口口口② |①---|
①①口③ |----|
口口口口 |②---|
口口口口 |③---|
22
口③③口 |①---|
口④④口 |②---|
口口②① |③---|
口口口口 |④---|
23
①口口口 |①---|
②口口口 |②---|
③口口口 |③---|
④口口口 |④---|
24
口口口口 |①---|
口口口口 |②---|
口口口④ |③---|
口①②③ |④---|
25
口①①口 |①---|
口②②口 |--②-|
③口口③ |----|
口口口口 |--③-|
26
口口口口 |----|
口口口口 |----|
口口口口 |----|
口口口口 |----|
27
口口口② |①---|
口口口③ |----|
口①①口 |②---|
口口口口 |③---|
28
口口口口 |①---|
口④口口 |②---|
口③②① |③---|
口口口口 |④---|
29
②口口口 |①---|
③口①① |----|
口口口口 |②---|
口口口口 |③---|
30
口③③口 |①---|
口④④口 |②---|
①②口口 |③---|
口口口口 |④---|
31
口口口① |①---|
口口口② |②---|
口口口③ |③---|
口口口④ |④---|
32
口口口口 |①---|
口口口口 |②---|
④口口口 |③---|
③②①口 |④---|
33
口①①口 |①---|
口②②口 |--②-|
③口口③ |----|
口口口口 |--③-|
34
口口口口 |----|
口口口口 |----|
口口口口 |----|
口口口口 |----|
35
②口①① |①---|
口口③口 |----|
口口口口 |②---|
口口口口 |--③-|
36
口口口口 |----|
口口口口 |①---|
①口口口 |--②-|
口口②口 |----|
37
①①口② |①---|
口③口口 |----|
口口口口 |②---|
口口口口 |--③-|
38
口口口口 |----|
口口口口 |①---|
口口口① |--②-|
口②口口 |----|
39
②口①① |①---|
口口③口 |----|
口口口口 |②---|
口口口口 |--③-|
40
口口口口 |----|
口口口口 |①---|
①口口口 |--②-|
口口②口 |----|
41
①①口② |①---|
口口口口 |----|
口口口口 |②---|
口口口口 |----|
42
口①①口 |①---|
口②②口 |②---|
口③③口 |③---|
口口口口 |----|
43
①①口② |①---|
口③口口 |----|
口口口口 |②---|
口口口口 |--③-|
44
口口口口 |----|
口口口口 |①---|
口口口① |--②-|
口②口口 |----|
45
②口①① |①---|
口口③口 |----|
口口口口 |②---|
口口口口 |--③-|
46
口口口口 |----|
口口口口 |①---|
①口口口 |--②-|
口口②口 |----|
47
①①口② |①---|
口③口口 |----|
口口口口 |②---|
口口口口 |--③-|
48
口口口口 |----|
口口口口 |①---|
口口口① |--②-|
口②口口 |----|
49
②口①① |①---|
口口口口 |----|
口口口口 |②---|
口口口口 |----|
50
口①①口 |①---|
③②②③ |②---|
口口口口 |----|
口口口口 |③---|
51
①②③④ |①---|
口口口口 |②---|
口口口口 |③---|
口口口口 |④---|
52
口口口口 |①---|
①②③④ |②---|
口口口口 |③---|
口口口口 |④---|
53
口口口口 |①---|
口口口口 |②---|
①②③④ |③---|
口口口口 |④---|
54
口口口口 |①---|
③口①③ |②---|
口②口口 |③---|
④口口④ |④---|
55
口口口口 |①---|
口口口口 |②---|
①②③④ |③---|
口口口口 |④---|
56
口口口口 |①---|
①②③④ |②---|
口口口口 |③---|
口口口口 |④---|
57
①②③④ |①---|
口口口口 |②---|
口口口口 |③---|
口口口口 |④---|
58
口口口口 |①---|
②①①② |----|
口口口口 |②---|
口③③口 |③---|
59
口口口② |①---|
口口口口 |----|
口①①口 |②---|
口口口口 |----|
60
①②②口 |①---|
口口口口 |----|
口③③口 |②---|
口口口口 |③---|
61
口口口口 |①---|
①④③② |②---|
①口口口 |③---|
口口口口 |④---|
62
口口口口 |①---|
口口③③ |②---|
口①口口 |③---|
口②④④ |④---|
63
口口口口 |①---|
③④口口 |②---|
口口②① |③---|
口口口口 |④---|
64
口口口口 |①---|
口口①口 |②---|
口口②口 |③---|
口④③口 |④---|
65
口口口口 |①---|
①口口① |--②-|
②口口② |----|
③口口③ |--③-|
66
口口口口 |----|
口口口口 |----|
口口口口 |----|
口口口口 |----|
67
③口口口 |①---|
④①①口 |②---|
口②②口 |③---|
口口口口 |④---|
68
口口口口 |①---|
口口④口 |②---|
①②③口 |③---|
口口口口 |④---|
69
口口口② |①---|
①口口③ |②---|
①口口④ |③---|
口口口口 |④---|
70
③口口③ |①---|
口口口口 |②---|
④②①④ |③---|
口口口口 |④---|
71
③口口口 |①---|
④①①口 |②---|
口口口口 |③---|
口②②口 |④---|
72
口口口口 |①---|
口口口口 |②---|
①②③④ |③---|
口口口口 |④---|
73
口①①口 |①---|
口②②口 |--②-|
③口口③ |----|
口口口口 |--③-|
74
口口口口 |----|
口口口口 |----|
口口口口 |----|
口口口口 |----|
75
口①口① |①---|
口口口口 |--②-|
口口②口 |----|
口口口口 |----|
76
①口①口 |①---|
口口口口 |--②-|
口②口口 |----|
口口口口 |----|
77
口①①口 |①---|
口②②口 |--②-|
③口口③ |----|
口口口口 |--③-|
78
口口口口 |----|
口口口口 |----|
口口口口 |----|
口口口口 |----|
79
口口口口 |①---|
①口①口 |--②-|
口口口口 |----|
口②口口 |----|
80
口口口口 |①---|
口①口① |--②-|
口口口口 |----|
口口②口 |----|
81
口①①口 |①---|
口②②口 |--②-|
③口口③ |----|
口口口口 |--③-|
82
口①①口 |----|
口口口口 |----|
口②②口 |①---|
口口口口 |②---|
83
口口口口 |①---|
口①①口 |----|
口口口口 |----|
口口口口 |----|

accuracy: 100%
最終更新:2022年05月05日 15:54