アットウィキロゴ
ROCK ju
C-Show

ADVANCED

Level: 7
BPM: 175
Notes: 689

1
口口口口 |----|
口口口口 |----|
口口口口 |----|
口口口口 |----|
2
口口口口 |----|
口口口口 |----|
口口口口 |----|
口口口口 |----|
3
①①①① |①---|
口口口口 |--②-|
口口口口 |----|
②②②② |----|
4
口①①口 |①---|
口口口口 |②-③-|
②③③② |----|
口口口口 |----|
5
①①①① |①---|
口口口口 |--②-|
口口口口
②②②②

⑤⑤口口
⑤口口③
口口④口 |--③-|
口口口口 |④-⑤-|
6
口口口口 |----|
口口口口 |----|
口①①口 |----|
口口口口 |①---|
7
①①①① |①---|
口口口口 |--②-|
口口口口 |----|
②②②② |----|
8
口①①口 |①---|
口口口口 |②-③-|
②③③② |----|
口口口口 |----|
9
①①①① |①---|
口口口口 |--②-|
口口口口
②②②②

口口⑤⑤
③口口⑤
口④口口 |--③-|
口口口口 |④-⑤-|
10
口口口口 |----|
口口口口 |----|
①口口① |----|
口口口口 |①---|
11
④②③⑤ |①-②-|
②④⑤③ |--③-|
口口口口 |--④-|
口①口口 |--⑤-|
12
口口口口 |--①-|
①③④② |--②-|
③①②④ |--③-|
口口口口 |--④-|
13
口口口口 |--①-|
口口口口 |--②-|
③①②④ |--③-|
①③④② |--④-|
14
口①②③ |--①-|
口②①口 |--②-|
口④口④ |③---|
口口④口 |④---|
15
口③⑤口 |①-②-|
①⑥④② |③-④-|
⑧口口⑦ |⑤-⑥-|
口口口口 |⑦-⑧-|
16
①⑤口③ |①-②-|
口口口⑦ |③-④-|
口④②口 |⑤-⑥-|
⑧口⑥口 |⑦-⑧-|
17
⑧口①口 |①-②-|
④口⑤口 |③-④-|
口⑥③⑦ |⑤-⑥-|
口②口口 |⑦-⑧-|
18
口④①⑤ |①-②-|
④口口① |③-④-|
②⑥③⑥ |⑤---|
口②⑥③ |⑥---|
19
①④①③ |①---|
口⑥口⑤ |②---|
②口口口 |③-④-|
②口口口 |⑤-⑥-|
20
口口口口 |①-②-|
口口口口 |③-④-|
⑧②⑦① |⑤-⑥-|
⑥④⑤③ |⑦-⑧-|
21
②口③① |①---|
④口⑤① |②-③-|
⑥口⑦口 |④-⑤-|
口口口口 |⑥-⑦-|
22
口口④口 |①-②-|
口③口③ |--③-|
⑤口⑤② |④---|
①⑤②口 |⑤---|
23
口①③① |①---|
口④②口 |②---|
口口⑤口 |③-④-|
口⑥②口 |⑤-⑥-|
24
⑧④口⑤ |①-②-|
口⑦⑥③ |③-④-|
口②口口 |⑤-⑥-|
口口口① |⑦-⑧-|
25
口口①口 |①---|
口口口口 |--②-|
口口口①
口②②口

口口⑤⑤
③口口⑤
口④口口 |--③-|
口口口口 |④-⑤-|
26
①口口口 |----|
口②口口 |①---|
③口口口 |②---|
口口口口 |③---|
27
③①④① |①---|
⑤口⑥口 |②---|
口口口② |③-④-|
口口口② |⑤-⑥-|
28
口口口口 |①-②-|
口口口口 |③-④-|
①⑦②⑧ |⑤-⑥-|
③⑤④⑥ |⑦-⑧-|
29
①③口② |①---|
①⑤口④ |②-③-|
口⑦口⑥ |④-⑤-|
口口口口 |⑥-⑦-|
30
口③口④ |①-②-|
③口口口 |--③-|
②⑤口⑤ |④---|
口②⑤① |⑤---|
31
①③①口 |①---|
口②④口 |②---|
口⑤口口 |③-④-|
口②⑥口 |⑤-⑥-|
32
⑤口④⑧ |①-②-|
③⑥⑦口 |③-④-|
口口②口 |⑤-⑥-|
①口口口 |⑦-⑧-|
33
口①口口 |①---|
口口口口 |--②-|
①口口口
口②②口

⑤⑤口口
⑤口口③
口口④口 |--③-|
口口口口 |④-⑤-|
34
口口口口 |----|
口口口口 |----|
口①①口 |----|
口口口口 |①---|
35
⑥口⑦⑤ |①-②-|
④③②① |③-④-|
⑥口⑦⑤ |⑤--⑥|
口口口口 |--⑦-|
36
口①口口 |-①--|
③口⑥② |②--③|
口①⑤口 |--④-|
③口④② |⑤-⑥-|
37
①①口口 |①-②-|
口②口口 |③-④-|
口③口口
口④口口

口⑦⑤口
⑦口口⑤
口口⑥口 |⑤--⑥|
口口口⑥ |--⑦-|
38
口口口口 |-①--|
口③②④ |②--③|
③①⑤② |--④-|
①⑥口口 |⑤-⑥-|
39
①①口口 |①-②-|
口口口口 |③-④-|
口④口②
口口③口

⑦口⑥⑤
⑦口⑥⑤
口口口口 |⑤--⑥|
口口口口 |--⑦-|
40
口①口口 |-①--|
口①⑥口 |②--③|
③⑤口② |--④-|
③口④② |⑤-⑥-|
41
口①②① |①-②-|
口③口口 |③-④-|
④口口口
口口口口

⑦口口⑦
⑤口口⑤
口口口口 |⑤--⑥|
口⑥⑥口 |--⑦-|
42
口②②口 |①---|
④口③⑤ |②---|
口③⑤⑤ |③-④-|
③口口① |⑤---|
43
④口⑤⑤ |①-②-|
口③口⑦ |③-④-|
②口⑦口 |⑤--⑥|
口①⑥⑥ |--⑦-|
44
口口口口 |-①--|
③②①⑥ |②--③|
②③⑤① |--④-|
口④口口 |⑤-⑥-|
45
⑤⑤口④ |①-②-|
⑦口③口 |③-④-|
口⑦口② |⑤--⑥|
⑥⑥①口 |--⑦-|
46
口口口口 |-①--|
⑥①②③ |②--③|
①⑤③② |--④-|
口口④口 |⑤-⑥-|
47
口⑤①⑤ |①-②-|
⑦②⑦口 |③-④-|
口口③口 |⑤--⑥|
⑥④⑥口 |--⑦-|
48
口④口⑥ |-①--|
口②⑤② |②--③|
③①③① |--④-|
口口口口 |⑤-⑥-|
49
①口口口 |①-②-|
①④口② |③-④-|
口口③口
口口口口

⑦⑤⑤⑦
口口口口
口口口口 |⑤--⑥|
⑥口口⑥ |--⑦-|
50
⑤口口⑤ |①-②-|
③口①口 |③---|
⑤②口⑤ |④---|
口口④④ |⑤---|
51
④②③⑤ |①-②-|
②④⑤③ |--③-|
口口口口 |--④-|
口①口口 |--⑤-|
52
口口口口 |--①-|
①③④② |--②-|
③①②④ |--③-|
口口口口 |--④-|
53
口口口口 |--①-|
口口口口 |--②-|
③①②④ |--③-|
①③④② |--④-|
54
口①②③ |--①-|
口②①口 |--②-|
口④口④ |③---|
口口④口 |④---|
55
口③⑤口 |①-②-|
①⑥④② |③-④-|
⑧口口⑦ |⑤-⑥-|
口口口口 |⑦-⑧-|
56
①⑤口③ |①-②-|
口口口⑦ |③-④-|
口④②口 |⑤-⑥-|
⑧口⑥口 |⑦-⑧-|
57
⑧口①口 |①-②-|
④口⑤口 |③-④-|
口⑥③⑦ |⑤-⑥-|
口②口口 |⑦-⑧-|
58
口④①⑤ |①-②-|
④口口① |③-④-|
②⑥③⑥ |⑤---|
口②⑥③ |⑥---|
59
③口口口 |①---|
口④①① |②---|
口口⑤口 |③-④-|
②②口⑥ |⑤-⑥-|
60
⑦⑦⑦① |①-②-|
口口②⑤ |③-④-|
⑥③口口 |⑤-⑥-|
④口口口 |⑦---|
61
口口⑦③ |①---|
②②口⑤ |②-③-|
④④口① |④-⑤-|
⑥⑥①① |⑥-⑦-|
62
①①口④ |①-②-|
口③口口 |--③-|
③⑤②⑤ |④---|
口口⑤② |⑤---|
63
②口④口 |①-②-|
⑧口⑤⑤ |③-④-|
③口①口 |⑤-⑥-|
⑥口⑦⑦ |⑦-⑧-|
64
⑥②③③ |①-②-|
⑧口⑤⑤ |③-④-|
口④①① |⑤-⑥-|
口⑦⑦口 |⑦-⑧-|
65
口①口③ |①---|
口口④口 |--②-|
②⑤②① |--③-|
口口口口 |④-⑤-|
66
口口①口 |----|
口口口② |①---|
口口③口 |②---|
口口口口 |③---|
67
口①口④ |①---|
①口口口 |②---|
⑤⑤⑥② |③-④-|
③③②口 |⑤-⑥-|
68
①①口⑧ |①-②-|
③③口⑥ |③-④-|
⑦⑦口② |⑤-⑥-|
⑤⑤④口 |⑦-⑧-|
69
口①①口 |①---|
口口③③ |②---|
⑥口⑤⑤ |③-④-|
④口②② |⑤-⑥-|
70
口①④③ |①-②-|
②口③口 |--③-|
⑤②⑤口 |④---|
口⑤口口 |⑤---|
71
⑥②口口 |①---|
②口③③ |②---|
口①口① |③-④-|
④口⑤⑤ |⑤-⑥-|
72
口④①① |①-②-|
口⑧⑤⑤ |③-④-|
⑥②③③ |⑤-⑥-|
口口⑦⑦ |⑦-⑧-|
73
①⑤①③ |①---|
口口④口 |--②-|
口②口② |③-④-|
口⑥⑥口 |⑤-⑥-|
74
口口口口 |----|
口口口④ |①---|
①②③口 |②---|
口口口口 |③-④-|
75
①③口① |①---|
③口⑤口 |②-③-|
口⑥口② |④---|
口④口口 |⑤-⑥-|
76
口口③口 |①---|
口⑤口③ |②-③-|
②口⑥口 |④---|
①口④① |⑤-⑥-|
77
口①口① |①---|
口口④口 |--②-|
②⑤口③ |--③-|
口②口口 |④-⑤-|
78
①口①口 |----|
口②口口 |①---|
③口③口 |②---|
口口口口 |③---|
79
口③口④ |①---|
①口③① |②-③-|
口口⑥⑤ |④---|
口②口口 |⑤-⑥-|
80
④口③口 |①---|
①③口① |②-③-|
⑤⑥口口 |④---|
口口②口 |⑤-⑥-|
81
③①口① |①---|
口④口口 |--②-|
口口⑤口 |③-④-|
②口②⑥ |⑤-⑥-|
82
口③⑤③ |①-②-|
①口②口 |③-④-|
⑥①⑥② |⑤---|
④⑥④口 |⑥---|
83
口口口口 |①---|
①①①① |----|
口口口口 |----|
口口口口 |----|

accuracy: 100%
最終更新:2022年05月05日 16:11