アットウィキロゴ
A Dance & A Beer
REDEMPTION 97

BASIC

Level: 3
BPM: 190
Notes: 296

1
口口口口 |----|
口口口口 |----|
口口口口 |----|
口口口口 |----|
2
口口口口 |①---|
口③③口 |--②-|
①口口② |----|
口口口口 |③---|
3
口口口口 |----|
①口口② |----|
口口口口 |①---|
口口口口 |②---|
4
口口口口 |①---|
口口口口 |--②-|
口①②口 |----|
③口口③ |③---|
5
口口口口 |----|
口口口口 |①---|
口①②③ |②---|
口口口口 |③---|
6
口③③口 |①---|
①口口② |--②-|
口口口口 |----|
口口口口 |③---|
7
口口口口 |①---|
①②③④ |②---|
口口口口 |③---|
口口口口 |④---|
8
口口口口 |①---|
口口口口 |----|
②口口① |②---|
口口口口 |----|
9
口口④口 |①---|
口③口口 |②---|
口口②口 |③---|
口①口口 |④---|
10
口口口口 |----|
①口口② |①---|
口口口口 |②---|
口口口口 |----|
11
口口口口 |①---|
口口口口 |----|
口①②口 |②---|
口口口口 |----|
12
口口口口 |①---|
口口口口 |②---|
口口口口 |③---|
①②③④ |④---|
13
口口口口 |①---|
口口口口 |----|
口①②口 |②---|
口口口口 |----|
14
口口口口 |----|
①口口② |①---|
口口口口 |②---|
口口口口 |----|
15
口①②口 |①---|
口口口口 |----|
口口口口 |②---|
口口口口 |----|
16
口口口口 |①---|
①②③④ |②---|
口口口口 |③---|
口口口口 |④---|
17
口口口口 |①---|
口口口口 |----|
口①②口 |②---|
口口口口 |----|
18
口口口口 |①---|
口口口口 |②---|
口口口口 |③---|
①②③④ |④---|
19
口口口口 |①---|
②口口② |----|
①口口① |②---|
口口口口 |----|
20
口①②口 |①---|
口③④口 |②---|
口口口口 |③---|
口口口口 |④---|
21
口口口口 |①---|
口口口口 |----|
口①口口 |----|
口口口口 |----|
22
口口口口 |①---|
口口口口 |②---|
口口口口 |③---|
①②③口 |----|
23
口口口口 |①---|
口口口口 |②---|
④③②① |③---|
口口口口 |④---|
24
口口口口 |①---|
口①②口 |----|
口口口口 |②---|
口口口口 |----|
25
口①①口 |①---|
口口口口 |----|
口口口口 |----|
口口口口 |----|
26
口口口口 |①---|
①②③口 |②---|
口口口口 |③---|
口口口口 |----|
27
口口口口 |①---|
口口口口 |②---|
口③②① |③---|
口口口口 |----|
28
口口口口 |①---|
②口口② |----|
口口口口 |②---|
①口口① |----|
29
口口口口 |①---|
口口口口 |②---|
①②③④ |③---|
口口口口 |④---|
30
口口口口 |①---|
口①②口 |----|
口口口口 |②---|
口口口口 |----|
31
①②③口 |①---|
口口口口 |②---|
口口口口 |③---|
口口口口 |----|
32
口口口口 |①---|
口②②口 |----|
口①①口 |②---|
口口口口 |----|
33
口口口口 |①---|
③口口④ |②---|
①口口② |③---|
口口口口 |④---|
34
口口口口 |----|
口口口口 |①---|
①口口② |②---|
口口口口 |----|
35
口口口口 |①---|
口口口口 |----|
口①②口 |②---|
口口口口 |----|
36
口口口口 |①---|
口口口口 |②---|
口口口口 |③---|
①②③④ |④---|
37
口口口口 |①---|
口口口口 |----|
口①②口 |②---|
口口口口 |----|
38
口口口口 |----|
①口口② |①---|
口口口口 |②---|
口口口口 |----|
39
口①②口 |①---|
口口口口 |----|
口口口口 |②---|
口口口口 |----|
40
口口口口 |①---|
①②③④ |②---|
口口口口 |③---|
口口口口 |④---|
41
口口口口 |①---|
口口口口 |----|
口①②口 |②---|
口口口口 |----|
42
口口口口 |①---|
口口口口 |②---|
口口口口 |③---|
①②③④ |④---|
43
口口口口 |①---|
②口口② |----|
①口口① |②---|
口口口口 |----|
44
口①②口 |①---|
口③④口 |②---|
口口口口 |③---|
口口口口 |④---|
45
口口口口 |①---|
口口口口 |----|
口①口口 |----|
口口口口 |----|
46
口口口口 |①---|
口口口口 |②---|
口口口口 |③---|
①②③口 |----|
47
口口口口 |①---|
口口口口 |②---|
④③②① |③---|
口口口口 |④---|
48
口口口口 |①---|
口①②口 |----|
口口口口 |②---|
口口口口 |----|
49
口①①口 |①---|
口口口口 |----|
口口口口 |----|
口口口口 |----|
50
口口口口 |①---|
①②③口 |②---|
口口口口 |③---|
口口口口 |----|
51
口口口口 |①---|
口口口口 |②---|
口③②① |③---|
口口口口 |----|
52
口口口口 |①---|
②口口② |----|
口口口口 |②---|
①口口① |----|
53
口口口口 |①---|
口口口口 |②---|
①②③④ |③---|
口口口口 |④---|
54
口口口口 |①---|
口①②口 |----|
口口口口 |②---|
口口口口 |----|
55
①②③口 |①---|
口口口口 |②---|
口口口口 |③---|
口口口口 |----|
56
口口口口 |①---|
口②②口 |----|
口①①口 |②---|
口口口口 |----|
57
口口口口 |①---|
③口口④ |②---|
①口口② |③---|
口口口口 |④---|
58
口口口口 |----|
口口口口 |----|
①②口口 |①---|
口口口口 |②---|
59
口口口口 |①---|
②口口② |----|
口口①口 |②---|
口口口口 |----|
60
口口口口 |①---|
口②②口 |----|
口①①口 |②---|
口口口口 |----|
61
②①①② |①---|
口口口口 |----|
口口口口 |②---|
口口口口 |----|
62
口口口口 |----|
口口口口 |----|
①口口① |①---|
口口口口 |----|
63
口口口口 |①---|
①④⑤① |②-③-|
口②③口 |--④-|
口口口口 |⑤---|
64
①②口口 |----|
口口口口 |----|
口口口口 |①---|
口口口口 |②---|
65
口口①② |①---|
口③口口 |②---|
口口④口 |③---|
口口口口 |④---|
66
口口口口 |①---|
口口口口 |----|
口口口口 |②---|
②①口② |----|
67
口口口口 |①---|
口④⑤口 |②-③-|
①②③① |--④-|
口口口口 |⑤---|
68
口口②① |----|
口口口口 |----|
口口口口 |①---|
口口口口 |②---|
69
②①口口 |①---|
口③口口 |②---|
口口④口 |③---|
口口口口 |④---|
70
口口口口 |①---|
口口口口 |----|
②口口② |②---|
口①口口 |----|
71
口口口口 |①---|
①④⑤① |②-③-|
口②③口 |--④-|
口口口口 |⑤---|
72
①②口口 |----|
口口口口 |----|
口口口口 |①---|
口口口口 |②---|
73
口口①② |①---|
口口③口 |②---|
口④口口 |③---|
口口口口 |④---|
74
口口口口 |①---|
口口口口 |----|
口口口口 |②---|
②口①② |----|
75
口口口口 |①---|
口④⑤口 |②-③-|
①②③① |--④-|
口口口口 |⑤---|
76
口口②① |----|
口口口口 |----|
口口口口 |①---|
口口口口 |②---|
77
②①口口 |①---|
口③口口 |②---|
口口④口 |③---|
口口口口 |④---|
78
口口口口 |①---|
口口口口 |----|
②口口② |②---|
口①口口 |----|
79
口口口口 |①---|
①④⑤① |②-③-|
口②③口 |--④-|
口口口口 |⑤---|
80
①②口口 |----|
口口口口 |----|
口口口口 |①---|
口口口口 |②---|
81
口口①② |①---|
口口③口 |②---|
口④口口 |③---|
口口口口 |④---|
82
口口口口 |①---|
口口口口 |----|
口口口口 |②---|
②口①② |----|
83
口口口口 |①---|
口④⑤口 |②-③-|
①②③① |--④-|
口口口口 |⑤---|
84
口口②① |----|
口口口口 |----|
口口口口 |①---|
口口口口 |②---|
85
②①口口 |①---|
口③口口 |②---|
口口④口 |③---|
口口口口 |④---|
86
口口口口 |①---|
口口口口 |--②-|
③口口③ |----|
口①②口 |③---|
87
口口口口 |----|
口③口口 |①---|
口①②口 |②---|
口口口口 |③---|
88
口③③口 |①---|
②口①口 |--②-|
口口口口 |----|
口口口口 |③---|
89
口口口口 |----|
口口口口 |----|
口①②口 |①---|
口口口口 |②---|
90
口口口口 |①---|
口③③口 |--②-|
②口口① |----|
口口口口 |③---|
91
口口口口 |----|
口口口口 |----|
①口口② |①---|
口口口口 |②---|
92
③③③③ |①---|
口①②口 |--②-|
口口口口 |----|
口口口口 |--③-|
最終更新:2018年10月22日 16:39