アットウィキロゴ
ROCK ju
C-Show

EXTREME

Level: 10.6
BPM: 175
Notes: 1000

1
口口口口 |----|
口口口口 |----|
口口口口 |----|
口口口口 |----|
2
口口口口 |----|
口口口口 |----|
口口口口 |----|
口①①口 |①---|
3
②①①② |①---|
①⑤口① |--②-|
④②②口 |----|
口③③口 |③-④⑤|
4
口②①口 |①-②-|
③口③口 |③-④-|
口④⑦① |----|
口⑤⑤⑥ |⑤-⑥⑦|
5
①④口口 |①---|
③①⑤口 |--②-|
①②口② |--③-|
口口口口 |④-⑤-|
6
口口口口 |①-②-|
口⑤口① |③-④⑤|
④口②口
口③口口

口口口⑨
⑥口口⑩
口⑦口⑪ |⑥⑦⑧-|
口口⑧⑫ |⑨⑩⑪⑫|
7
口①①口 |①---|
②③③口 |--②-|
④⑤①口 |----|
②②口口 |③-④⑤|
8
②③①③ |①-②-|
口口口口 |③-④-|
口口①口
口④口④

口口口口
⑤口口口
口口⑦⑥ |----|
口口口口 |⑤-⑥⑦|
9
①口①口 |①---|
口口口口 |--②-|
口①口口
口②②口

口④口④
口口⑤口
③⑥口⑥ |③-④-|
口口口口 |⑤-⑥-|
10
口口口口 |----|
口口口口 |----|
①口口① |----|
口口口口 |①---|
11
④②①口 |①-②-|
②④口口 |③-④-|
口口①口
③口①口

口口⑧⑥
口口⑥⑧
口⑤口口 |⑤-⑥-|
口⑤口⑦ |⑦-⑧-|
12
④②⑧⑥ |①-②-|
②④⑥⑧ |③-④-|
口⑤①口 |⑤-⑥-|
③⑤①⑦ |⑦-⑧-|
13
④②⑧⑥ |①-②-|
②④⑥⑧ |③-④-|
口⑤①口 |⑤-⑥-|
③⑤①⑦ |⑦-⑧-|
14
④②⑥口 |①-②-|
②④⑤口 |③-④-|
⑥⑤⑥⑤ |⑤---|
③⑥①口 |⑥---|
15
⑧④口⑤ |①②③④|
②口口① |⑤⑥⑦⑧|
口口口⑦
⑥口③口

口口⑬口
口⑫⑨⑮
⑯⑩口口 |⑨⑩⑪⑫|
口⑭口⑪ |⑬⑭⑮⑯|
16
⑧④⑮⑤ |①②③④|
②⑫⑩⑬ |⑤⑥⑦⑧|
⑯⑨①⑦ |⑨⑩⑪⑫|
⑥⑭③⑪ |⑬⑭⑮⑯|
17
⑥②⑧④ |①-②-|
②口④口 |③-④-|
⑦⑥①⑧ |⑤-⑥-|
⑤口③口 |⑦-⑧-|
18
⑤①口⑥ |①-②-|
①③③口 |③-④-|
口⑥②⑥ |⑤---|
④②⑥④ |⑥---|
19
口①①口 |①-②-|
口口口口 |③---|
③口②口
③②口口

口口⑩⑧
⑦⑥⑤④
口口⑪⑨ |④⑤⑥⑦|
口口口口 |⑧⑨⑩⑪|
20
③①口口 |①②③④|
口口口口 |⑤⑥⑦⑧|
④②口口
⑧⑦⑥⑤

口⑭口⑪
⑩⑫口⑨
口⑯⑬⑮ |⑨⑩⑪⑫|
口口口口 |⑬⑭⑮⑯|
21
①口口口 |①---|
口口①口 |②③④⑤|
①口口口
②③④⑤

口口口口
⑥⑦⑪⑩
⑬⑫⑧⑨ |⑥⑦⑧⑨|
口口口口 |⑩⑪⑫⑬|
22
①⑤②⑥ |①②③-|
⑤④口口 |--④-|
口⑥⑤⑥ |⑤---|
③③⑥④ |⑥---|
23
③⑫②⑪ |①-②-|
⑧口⑥④ |③-④-|
口⑩口⑨ |⑤⑥⑦⑧|
①⑦口⑤ |⑨⑩⑪⑫|
24
③口④口 |①②③④|
口⑤⑦口 |⑤⑥⑦⑧|
①口②口
口⑧⑥口

⑯口口⑫
⑮口口⑪
⑭口口⑩ |⑨⑩⑪⑫|
⑬口口⑨ |⑬⑭⑮⑯|
25
⑤①①口 |①---|
⑤③③口 |--②-|
口①①④ |--③-|
口②②④ |④-⑤-|
26
口①口③ |①-②-|
⑨⑥⑦⑧ |③-④⑤|
④⑩②⑫ |⑥⑦⑧-|
⑤口⑪口 |⑨⑩⑪⑫|
27
口①①口 |①-②-|
口口口口 |③---|
③口②口
③②口口

口口⑩⑧
⑦⑥⑤④
口口⑪⑨ |④⑤⑥⑦|
口口口口 |⑧⑨⑩⑪|
28
③①口口 |①②③④|
口口口口 |⑤⑥⑦⑧|
④②口口
⑧⑦⑥⑤

口⑭口⑪
⑩⑫口⑨
口⑯⑬⑮ |⑨⑩⑪⑫|
口口口口 |⑬⑭⑮⑯|
29
①口口口 |①---|
口口①口 |②③④⑤|
①口口口
②③④⑤

口口口口
⑥⑦⑪⑩
⑬⑫⑧⑨ |⑥⑦⑧⑨|
口口口口 |⑩⑪⑫⑬|
30
①⑤②⑥ |①②③-|
⑤④口口 |--④-|
口⑥⑤⑥ |⑤---|
③③⑥④ |⑥---|
31
③⑪③⑩ |①-②-|
⑦③⑤① |③---|
口⑨口⑧ |④⑤⑥⑦|
②⑥口④ |⑧⑨⑩⑪|
32
③口④口 |①②③④|
口⑤⑦口 |⑤⑥⑦⑧|
①口②口
口⑧⑥口

⑯口口⑫
⑮口口⑪
⑭口口⑩ |⑨⑩⑪⑫|
⑬口口⑨ |⑬⑭⑮⑯|
33
口①①口 |①---|
口口口口 |--②-|
口①①口
口②②口

⑥⑥口④
⑥口⑤口
口口口③ |③-④-|
口口口口 |⑤-⑥-|
34
⑨口⑥⑨ |①-②-|
口⑦口① |③-④⑤|
⑧④⑤口 |⑥⑦⑧-|
②口口③ |⑨---|
35
⑥①口口 |①-②-|
⑤口⑤④ |③-④-|
⑥⑦③⑦ |⑤--⑥|
口①口② |--⑦-|
36
⑥②①② |-①--|
口③⑤口 |②--③|
④口①口 |--④-|
口③口口 |⑤-⑥-|
37
口口①⑥ |①-②-|
④⑤口⑤ |③-④-|
⑦③⑦⑥ |⑤--⑥|
②口①口 |--⑦-|
38
②①②⑥ |-①--|
口⑤③口 |②--③|
口①口④ |--④-|
口口③口 |⑤-⑥-|
39
口①④口 |①-②-|
③口⑤⑤ |③-④-|
口⑥②⑦ |⑤--⑥|
①⑥口⑦ |--⑦-|
40
④②口口 |①②③-|
④②⑤⑤ |④--⑤|
①⑦③口 |--⑥-|
⑥口⑧口 |⑦-⑧-|
41
④口①⑦ |①-②-|
⑥③⑤口 |③-④-|
②⑥口⑤ |⑤--⑥|
口口口① |--⑦-|
42
②③③⑤ |①---|
④②③③ |②---|
②④①③ |③-④-|
②②①口 |⑤---|
43
⑩口⑨⑧ |①-②-|
口②⑦⑥ |③-④⑤|
③⑪⑤④ |⑥⑦⑧⑨|
口口①① |⑩-⑪-|
44
⑪④口⑩ |①②③-|
④②⑥⑤ |④-⑤⑥|
⑦口⑨口 |⑦⑧⑨-|
③⑧①口 |⑩-⑪-|
45
⑩口⑨⑧ |①-②-|
口②⑦⑥ |③-④⑤|
口⑪⑤④ |⑥⑦⑧⑨|
③口①① |⑩-⑪-|
46
⑪④口⑩ |①②③-|
④②⑥⑤ |④-⑤⑥|
⑦口⑨口 |⑦⑧⑨-|
③⑧①口 |⑩-⑪-|
47
口②口口 |①-②-|
口口口口 |③-④⑤|
口口口③
④⑤①①

口口口口
⑧⑨口⑩
⑥⑦口口 |⑥⑦⑧⑨|
口口⑪口 |⑩-⑪-|
48
④①④③ |①②③-|
⑩口⑨⑪ |④-⑤⑥|
⑤⑧②口 |⑦⑧⑨-|
⑦⑥口口 |⑩-⑪-|
49
口②口口 |①-②-|
口口口口 |③-④⑤|
口口口③
④⑤①①

口口口口
⑧⑨口⑩
⑥⑦口口 |⑥⑦⑧⑨|
口口⑪口 |⑩-⑪-|
50
口③①⑨ |①-②-|
口⑥⑨⑨ |③-④⑤|
④⑦②⑨ |⑥⑦⑧-|
⑤⑧口③ |⑨---|
51
④②①口 |①-②-|
②④口口 |③-④-|
口口①口
③口①口

口口⑧⑥
口口⑥⑧
口⑤口口 |⑤-⑥-|
口⑤口⑦ |⑦-⑧-|
52
④②⑧⑥ |①-②-|
②④⑥⑧ |③-④-|
口⑤①口 |⑤-⑥-|
③⑤①⑦ |⑦-⑧-|
53
④②⑧⑥ |①-②-|
②④⑥⑧ |③-④-|
口⑤①口 |⑤-⑥-|
③⑤①⑦ |⑦-⑧-|
54
④②⑥口 |①-②-|
②④⑤口 |③-④-|
⑥⑤⑥⑤ |⑤---|
③⑥①口 |⑥---|
55
⑧④口⑤ |①②③④|
②口口① |⑤⑥⑦⑧|
口口口⑦
⑥口③口

口口⑬口
口⑫⑨⑮
⑯⑩口口 |⑨⑩⑪⑫|
口⑭口⑪ |⑬⑭⑮⑯|
56
⑧④⑮⑤ |①②③④|
②⑫⑩⑬ |⑤⑥⑦⑧|
⑯⑨①⑦ |⑨⑩⑪⑫|
⑥⑭③⑪ |⑬⑭⑮⑯|
57
⑥②⑧④ |①-②-|
②口④口 |③-④-|
⑦⑥①⑧ |⑤-⑥-|
⑤口③口 |⑦-⑧-|
58
⑤①口⑥ |①-②-|
①③③口 |③-④-|
口⑥②⑥ |⑤---|
④②⑥④ |⑥---|
59
口①口口 |①-②-|
①口②口 |③---|
口口口口
③②口③

口口⑧口
⑩⑤口④
⑦口⑥⑨ |④⑤⑥⑦|
口⑪口口 |⑧⑨⑩⑪|
60
⑪①口⑥ |①②③④|
⑪⑦②口 |⑤⑥⑦⑧|
⑨③⑧⑩ |⑨-⑩-|
⑤口④⑩ |⑪---|
61
⑩①①⑥ |①---|
⑦②③⑪ |②③④⑤|
⑫⑤④⑧ |⑥⑦⑧⑨|
⑨①①⑬ |⑩⑪⑫⑬|
62
口①①⑤ |①-②-|
③④②口 |--③-|
口⑤③⑤ |④---|
④②⑤口 |⑤---|
63
②⑨③⑫ |①-②-|
口口口⑦ |③-④-|
①⑪⑥⑩ |⑤⑥⑦⑧|
④⑧口⑤ |⑨⑩⑪⑫|
64
①⑯⑤⑮ |①②③④|
⑥⑭②⑬ |⑤⑥⑦⑧|
③⑫⑦⑪ |⑨⑩⑪⑫|
⑧⑩④⑨ |⑬⑭⑮⑯|
65
①口③⑤ |①---|
③口①口 |--②-|
①口④⑤ |--③-|
④②②口 |④-⑤-|
66
③口口口 |①-②-|
口④口② |③-④⑤|
⑤①口口
口口口口

口口⑥口
⑨口⑦口
口⑩⑧⑫ |⑥⑦⑧-|
口口⑪口 |⑨⑩⑪⑫|
67
口②口口 |①---|
口口口口 |②---|
②口口口
①①口口

口口⑤⑦
口④⑧⑥
口⑨③口 |③④⑤⑥|
⑩口口口 |⑦⑧⑨⑩|
68
⑥④口口 |①②③④|
②口口口 |⑤⑥⑦⑧|
⑧口⑦③
口口①⑤

口口⑪⑬
口口⑯⑨
口⑫口口 |⑨⑩⑪⑫|
⑭⑩⑮口 |⑬⑭⑮⑯|
69
口①口口 |①---|
①③口⑤ |②③④⑤|
②口④口
口口口口

⑥⑫⑧⑩
口口口口
口口口口 |⑥⑦⑧⑨|
⑬⑦⑪⑨ |⑩⑪⑫⑬|
70
口口④⑤ |①-②-|
②③①③ |--③-|
②⑤④⑤ |④---|
口口⑤口 |⑤---|
71
⑪①⑧口 |①-②-|
⑥③③③ |③---|
⑨⑤⑩口 |④⑤⑥⑦|
④口⑦② |⑧⑨⑩⑪|
72
⑮⑤⑯① |①②③④|
⑬②⑭⑥ |⑤⑥⑦⑧|
⑪⑦⑫③ |⑨⑩⑪⑫|
⑨④⑩⑧ |⑬⑭⑮⑯|
73
口口口① |①---|
口①口口 |--②-|
口口口①
口②②口

口③口口
口⑥⑥④
⑤口口口 |③-④-|
口口口口 |⑤-⑥-|
74
①⑩③⑨ |①-②-|
口⑫口⑪ |③-④⑤|
口②⑤④ |⑥⑦⑧-|
⑥⑦⑧口 |⑨⑩⑪⑫|
75
①口③口 |①---|
②口⑦口 |②-③-|
④口②⑥ |④---|
⑤口口① |⑤-⑥⑦|
76
③①口② |①-②-|
口⑧⑦口 |③-④-|
口④口⑥ |⑤---|
口①③⑤ |⑥-⑦⑧|
77
口⑥④② |①---|
①口口① |②-③-|
口⑦口⑤ |④-⑤-|
口③⑥口 |⑥-⑦-|
78
①口③口 |①---|
②④口① |②---|
③口①③ |③---|
④口口② |④---|
79
口③口口 |①---|
②口①口 |②-③-|
口口口口
口①②口

口口口口
口口⑥口
口⑦口⑤ |④---|
口口口④ |⑤-⑥⑦|
80
口⑥⑤③ |①-②-|
口②口① |③-④-|
④⑦⑧口 |⑤---|
①口③口 |⑥-⑦⑧|
81
①口口⑤ |①---|
③口口口 |--②-|
口⑥口① |③-④-|
②口④② |⑤-⑥-|
82
⑤⑤口⑥ |①-②-|
⑤③③② |③-④-|
①⑥②⑥ |⑤---|
④①⑤④ |⑥---|
83
口口①口 |①---|
口口口口 |----|
①口①口 |----|
口①口口 |----|

accuracy: 100%
最終更新:2022年05月05日 16:44