アットウィキロゴ
pedigree
BEMANI Sound Team "S-C-U"

ADVNACED

Level: 9.6
BPM: 190
Notes(hold): 749(49)

1
口口口口 |----|
口口口口 |----|
口口口口 |----|
口口口口 |----|
2
口口口① |----|
口口②口 |①---|
口③口口 |②---|
口口口口 |③---|
3
口口口口 |①---|
①―<口 |--②-|
①――< |----|
口口口口 |----|

口口②口
②口∧②
②口口∧
口口口口
4
口⑤①⑥ |①---|
口⑦口① |--②③|
②③④口 |④-⑤-|
口口口口 |⑥-⑦-|
5
口口口口 |①---|
口口口口 |--②-|
口口口① |----|
口口口∧ |③---|

口口口口
口口②口
口口∧②
口口口口

③③口口
∧∧③口
口口口口
口口口口
6
①①口口 |----|
口口口② |①---|
口③③口 |②-③-|
口①①口 |----|
7
口口>① |①---|
口口口口 |----|
口口>① |--②-|
口口口口 |--③-|

口③口②
③②②口
口口口②
口口口口
8
口口口口 |----|
口口口① |①---|
口口②口 |②---|
口③口口 |③---|
9
口口口口 |①---|
口口口口 |--②-|
①<>① |----|
口口口口 |----|

口口口口
口②②口
②||②
口∧∧口
10
②口④口 |①---|
③①①口 |②---|
⑤口⑥口 |③-④-|
口口口口 |⑤-⑥-|
11
口口口口 |①---|
口∨口口 |--②-|
口|口口 |③---|
口①口口 |----|

口口口口
口口口口
口口口口
①―<口

口口口口
口口②口
口口|口
②②∧口

口口口口
③>―②
口口口口
口口口口
12
⑥①⑤口 |①---|
口口①① |--②③|
口④③② |④-⑤-|
口口口口 |⑥-⑦-|

口口口口
口口⑦口
口口口口
口口口口
13
口口口口 |①---|
口口口口 |--②-|
①口口口 |③---|
∧口口口 |④---|

口口口口
口②口口
②∧口③
口口口口

口口④④
口④∧∧
口口口口
口口口口
14
①口②② |①---|
③口口口 |②---|
口④④口 |③-④-|
口②②口 |----|
15
①<口口 |①---|
口口口① |②---|
①<口② |③-④-|
口口口口 |⑤-⑥-|

④口⑥口
口④口⑥
④口口口
口口⑤③
16
口②口② |①---|
③口③口 |②---|
口④口④ |③---|
口①口口 |④---|
17
口口口口 |①---|
口口口口 |②-③-|
∨口口口 |④---|
①口①口 |⑤---|

口口⑤口
口口④口
口∨②口
③③口口
18
口口口口 |①---|
②口口② |----|
口口口口 |②---|
口①口口 |----|
19
②口⑦⑦ |①-②-|
④口⑤口 |③---|
口③①① |④-⑤-|
口⑥口口 |⑥-⑦-|
20
口口口口 |--①-|
③①⑤口 |②---|
口④口⑥ |③-④-|
②口②口 |⑤-⑥-|
21
①①⑤口 |①---|
④口口② |②-③-|
口口⑤口 |--④-|
④口③口 |--⑤-|
22
口⑥口⑦ |--①-|
口③④⑤ |②-③④|
①⑧口口 |⑤-⑥-|
口②口口 |⑦-⑧-|
23
⑦口⑥口 |①---|
⑤④③口 |②-③④|
口口⑧① |⑤-⑥-|
②口①口 |⑦-⑧-|
24
口⑥口⑦ |①---|
口③④⑤ |②-③④|
①⑧口口 |⑤-⑥-|
口①口② |⑦-⑧-|
25
③口③⑤ |①-②-|
口口口⑤ |--③-|
口口②① |--④-|
口④①口 |--⑤-|
26
口③③口 |--①-|
①口口口 |②---|
口②④④ |③---|
口口口口 |④---|
27
②⑦口口 |①-②-|
⑦口口④ |③---|
口③⑥口 |④-⑤-|
①①⑤口 |⑥-⑦-|
28
口口口口 |--①-|
口④①⑥ |②---|
③口⑤口 |③-④-|
口②口口 |⑤-⑥-|
29
①①②口 |①---|
口口口口 |②-③-|
④⑤④② |--④-|
⑥③⑥口 |⑤-⑥-|
30
②⑥①⑦ |--①-|
口③④⑤ |②-③④|
口⑧口口 |⑤-⑥-|
口口口口 |⑦-⑧-|
31
⑦口⑥口 |①---|
⑤④③口 |②-③④|
口口⑧① |⑤-⑥-|
②口①口 |⑦-⑧-|
32
口⑥口⑦ |①---|
口③④⑤ |②-③④|
①⑧口口 |⑤-⑥-|
口①口② |⑦-⑧-|
33
口口③口 |①---|
②⑤④口 |②-③-|
口口口① |④-⑤-|
口口①口 |--⑥-|

口口口⑥
口口口口
口口口⑥
口口口口
34
⑪⑫口口 |--①-|
⑦⑧⑨⑩ |②-③④|
①②口口 |⑤⑥⑦⑧|
③④⑤⑥ |⑨⑩⑪⑫|
35
⑤口③① |①---|
口口口口 |②---|
②②⑤① |③-④-|
口④口口 |--⑤-|
36
口③口① |--①-|
③口⑤口 |②---|
②①口② |③-④-|
口④口⑥ |⑤-⑥-|
37
②口②① |①---|
口①口③ |②---|
口①④口 |③-④-|
口口口口 |--⑤-|

口口口口
⑤<口口
⑤<口口
口口口口
38
口口①口 |--①-|
②⑦③⑥ |②-③④|
②④口② |⑤-⑥-|
⑧⑧⑤口 |⑦-⑧-|
39
口③口①|--①-|
⑤口⑤口 |②---|
口④口② |③-④-|
口口口口 |--⑤-|
40
①口口③ |--①-|
口④口⑥ |②---|
②口口口 |③-④-|
③口⑤口 |⑤-⑥-|
41
∨①<口 |①---|
①口口口 |②-③④|
口口口口 |⑤---|
口口口口 |⑥-⑦-|

口②⑦⑥
②口口口
口⑤④③
口口口口
42
②<口口 |--①-|
口口口口 |②-③-|
口口口口 |④-⑤-|
口①①口 |⑥-⑦⑧|

③口口口
口④<口
口口口口
口口口口

口口口口
口⑤口口
口口⑥<
口口口口

口口⑧⑦
口口口口
口口⑦口
口口口口
43
口①口⑤ |①---|
口③口② |②---|
口⑤口② |③-④-|
口口④口 |--⑤-|
44
①口③口 |--①-|
口⑤口③ |②---|
②口①② |③-④-|
⑥口④口 |⑤-⑥-|
45
口①⑤① |①--②|
②口口口 |--③-|
口④口④ |④--⑤|
⑥③口⑥ |--⑥-|
46
②⑥⑦② |--①-|
口①①⑧ |②-③④|
③④⑤口 |⑤-⑥-|
口口口口 |⑦-⑧-|
47
④口口② |①---|
①⑥⑥口 |②-③-|
⑥⑤③⑥ |④-⑤-|
①口口口 |--⑥-|
48
④②②③ |--①-|
④口口③ |②---|
口口口口 |③---|
口①①口 |④---|
49
⑤②②口 |①---|
⑥④①④ |②-③-|
①③③口 |--④-|
④口口① |--⑤⑥|
50
口④②② |①-②-|
口口口口 |③---|
①―<③ |④---|
口口③口 |⑤---|

口口口口
口口口口
⑤口⑤口
口口口口
51
口口①① |①-②-|
④⑤③⑤ |③-④-|
口④口③ |--⑤-|
②②口口 |--⑥-|

口口⑥口
口口口口
口口口口
口口⑥口
52
口①口口 |--①-|
③③口口 |②---|
②②④④ |③-④-|
⑤①⑤口 |--⑤-|
53
口口∨口 |①---|
口口①口 |②-③-|
口口口口 |----|
口口口口 |④-⑤⑥|

口口口口
③口③口
∧口口口
口②口口

口口口口
④口口⑤
口口口⑥
口口④口
54
②口④口 |①-②③|
⑧③⑩口 |④-⑤⑥|
⑤⑨⑦口 |⑦-⑧⑨|
⑪⑥口① |⑩-⑪-|
55
①①口口 |①-②-|
⑤③⑤④ |③-④-|
③口④口 |--⑤-|
口口②② |--⑥-|

口⑥口口
口口口口
口口口口
口⑥口口
56
口口①口 |--①-|
口口③③ |②---|
④④②② |③-④-|
口⑤①⑤ |--⑤-|
57
口>―① |①---|
口口口口 |②-③-|
口口口口 |----|
口口口口 |④-⑤⑥|

口④∨③
⑤②|口
⑥口③口
口口口口
58
⑤口口口 |①-②③|
口⑦③⑧ |④-⑤-|
口④①② |⑥-⑦-|
①口⑨⑥ |⑧-⑨-|
59
口口①① |①-②-|
④⑤③⑤ |③-④-|
口④口③ |--⑤-|
②②口口 |--⑥-|

口口⑥口
口口口口
口口口口
口口⑥口
60
口①口口 |--①-|
③③口口 |②---|
②②④④ |③-④-|
⑤①⑤口 |--⑤-|
61
④口①口 |①--②|
⑥⑤②③ |--③-|
③②⑤⑥ |④--⑤|
口④口① |--⑥-|
62
口①②② |①-②-|
口口③口 |--③④|
⑦④⑧口 |⑤-⑥-|
⑤口①⑥ |⑦-⑧-|
63
口口口口 |①---|
①<口① |②-③④|
口口口口 |⑤---|
口口口口 |⑥-⑦⑧|

⑤口⑤
②口④口
口③口口
口口②口

口⑥⑦口
口⑧口口
口口口⑥
口口口口
64
口口口口 |①-②-|
⑤口口③ |③-④-|
①④②口 |⑤-⑥-|
⑤口⑥③ |⑦-⑧-|

口⑦口⑦
口口口口
⑧口口口
口口口口
65
①―<口 |①---|
口口口口 |②-③④|
口口口口 |⑤---|
口口口口 |--⑥-|

②口口口
⑤⑤<
口口④口
口③口②
66
②口口② |--①-|
③①①③ |②---|
④口口④ |③---|
口口口口 |④---|
67
④口②⑥ |①-②-|
口⑤口⑤ |③-④-|
口③口⑥ |⑤--⑥|
①⑦⑦① |--⑦-|
68
口②口口 |--①-|
④⑤⑥⑦ |②-③-|
①口③口 |④⑤⑥⑦|
⑪⑩⑨⑧ |⑧⑨⑩⑪|
69
⑥②口④ |①-②-|
⑤口⑤口 |③-④-|
⑥①③① |⑤--⑥|
口⑦⑦口 |--⑦-|
70
⑦⑥⑤④ |--①-|
口③口② |②-③-|
⑧⑨⑩⑪ |④⑤⑥⑦|
口口口① |⑧⑨⑩⑪|
71
口⑥⑦⑦ |①-②-|
④⑤②⑤ |③-④-|
口⑥口口 |⑤--⑥|
①③①口 |--⑦-|
72
⑪口口⑩ |--①-|
⑨③口⑧ |②-③-|
⑦口②⑥ |④⑤⑥⑦|
⑤①口④ |⑧⑨⑩⑪|
73
口①①口 |①--②|
口口③⑤ |--③-|
口②⑤口 |④--⑤|
④④②③ |--⑥-|

口⑥口口
口口口口
⑥口口口
口口口口
74
②⑯⑤① |①②③④|
④⑧⑪⑬ |⑤⑥⑦⑧|
⑭⑥⑮③ |⑨⑩⑪⑫|
⑩⑫⑦⑨ |⑬⑭⑮⑯|
75
②口④① |①-②-|
口⑥口口 |③-④-|
⑦③⑦口 |⑤--⑥|
⑥口⑤⑤ |--⑦-|
76
④④⑪① |--①②|
⑧口⑦② |③-④-|
⑩⑫口③ |⑤⑥⑦⑧|
⑥口⑨⑤ |⑨⑩⑪⑫|
77
口④口② |①-②-|
口①⑥口 |③-④-|
口⑦③⑦ |⑤--⑥|
⑤⑤口⑥ |--⑦-|
78
①⑪④④ |--①②|
②⑦口⑧ |③-④-|
③口⑫⑩ |⑤⑥⑦⑧|
⑤⑨口⑥ |⑨⑩⑪⑫|
79
②口④口 |①-②-|
口⑥①口 |③-④-|
⑦③⑦口 |⑤--⑥|
⑥口⑤⑤ |--⑦-|
80
④④⑨① |--①②|
⑧⑫⑤② |③-④-|
⑩口口③ |⑤⑥⑦⑧|
口⑥⑪⑦ |⑨⑩⑪⑫|
81
口③口① |①--②|
⑤口④⑥ |--③-|
口②①② |④--⑤|
⑤口口④ |--⑥-|
82
⑤⑥①口 |①-②-|
口②⑫⑪ |③-④-|
⑨⑩③口 |⑤⑥⑦⑧|
口④⑧⑦ |⑨⑩⑪⑫|
83
口口口① |①---|
①口口| |--②-|
|口口∧ |----|
∧口口口 |----|

―②②
②②―<
―②口
口②―<
84
口口口口 |----|
口口口口 |----|
口口口口 |----|
口口口口 |----|
85
口口口口 |----|
口口口口 |----|
口口口口 |----|
口口口口 |----|
86
口口①口 |①---|
口①口口 |----|
口口①口 |----|
口①口口 |----|
最終更新:2019年11月08日 02:43