アットウィキロゴ
pedigree

EXTREME

Level: 10.7
BPM: 190
Notes(hold): 878(64)

1
口口口口 |----|
口口口口 |----|
口口口口 |----|
口口口口 |----|
2
①口口① |----|
口②②口 |①---|
口③③口 |②---|
口口口口 |③---|
3
口口口口 |①---|
↓口口↓
↓口口↓
①口口①

口口口口
口②②口 |--②-|
口↑↑口 |----|
②↑↑② |----|
4
②⑤⑦口 |--①-|
③①①口 |--②③|
④口⑥④ |④-⑤-|
口口口口 |⑥-⑦-|
5
口口口① |①---|
口↓口口
口①口口
口口口口

口口口口
口→②口 |--②-|
口②口口 |----|
口口口口

口③口口
口↑③口
口↑口口
口口口口 |③---|
6
口①②口 |----|
③③口口 |①---|
口口口口 |②-③-|
口口①① |----|
7
①←口口 |①---|
口口口口 |----|
①←口口
口口口口

②口③口
口口口口
②口②③ |--②-|
口口②口 |--③-|
8
口口口① |----|
②口②口 |①---|
口③口口 |②---|
口口口口 |③---|
9
口口口口 |①---|
↓口口↓
↓口口↓
①口口①

口口口口
口②②口 |--②-|
口↑↑口 |----|
②↑↑② |----|
10
②⑧口⑦ |--①-|
口①①⑨ |②--③④⑤|
⑥⑤④③ |⑥-⑦-|
口口口口 |⑧-⑨-|
11
口口口口 |①---|
①①口口
↑↑口口
↑↑口口

③口②↓
②②↑↓ |--②-|
口口↑② |③---|
口口口口 |----|
12
口⑤①⑥ |①---|
⑦口口口 |--②③|
②③④① |④-⑤-|
口①①口 |⑥-⑦-|
13
①←口口 |①---|
口口①口
口口口口
口口口口

②↓口口
口②口③ |--②-|
口口口口 |③---|
口口口口

口→④口
口④口口
口口口口
口口口口 |④---|
14
口口②口 |①---|
③口口③ |②---|
口④④口 |③-④-|
①②②口 |----|
15
①←←① |①---|
口口②口 |②---|
口口口口
口口口口

④口⑥⑥
口口口口
口④口③ |③-④-|
口口⑤口 |⑤-⑥-|
16
口①口口 |①---|
②口②口 |②---|
口③口③ |③---|
④口④口 |④---|
17
①←①① |①---|
口②②口 |②-|
口口口口
口口口口

③③口口
口↑口口 |③-|
口↑④④ |④---|
口⑤⑤口 |⑤---|
18
口①口口 |--①-|
口③口② |----|
口口口口 |②-③-|
⑦⑥⑤④ |④⑤⑥⑦|
19
④②③① |①-②-|
③⑦⑤口 |③---|
⑦口②口 |④-⑤-|
口口⑥口 |⑥-⑦-|
20
口⑦口口 |①-②-|
④口⑥② |③---|
⑥⑤口① |④-⑤-|
口③口③ |⑥-⑦-|
21
口口①① |①---|
④②⑥口 |②-③-|
口⑤③⑤ |--④-|
②口口口 |⑤-⑥-|
22
口②②① |①---|
口⑤⑧③ |②-③④|
⑥⑦④口 |⑤-⑥-|
口⑤口口 |⑦-⑧-|
23
①②②口 |①---|
口③⑧口 |②-③④|
⑥⑦④口 |⑤-⑥-|
口⑤①⑤ |⑦-⑧-|
24
①②②口 |①---|
口⑤⑧③ |②-③④|
⑥⑦④口 |⑤-⑥-|
口⑤①口 |⑦-⑧-|
25
①口口④ |①-②-|
③口口口 |③-④-|
口口口②
口口①口

⑦⑦口口
口口口口
口⑤⑥口 |--⑤-|
口口口口 |⑥-⑦-|
26
⑧⑦⑥⑤ |--①-|
口口①③ |②---|
②④口③ |③-④-|
口②口口 |⑤⑥⑦⑧|
27
口口⑧口 |①-②-|
⑤②②⑧ |③-④-|
口口①④ |⑤-⑥-|
③⑦⑥⑥ |⑦-⑧-|
28
②②口口 |①-②-|
口口①口 |③-④-|
③③口④
口口口口

口口口口
⑤口⑧口
口口口口 |⑤-⑥-|
⑦口⑥⑦ |⑦-⑧-|
29
③①②① |①-②-|
口口口口 |③-④-|
④口①口
口口口口

口口口口 |①-②-|
→⑦口⑤ |③-④-|
口⑦←⑤ |--⑤-|
口口⑥口 |⑥-⑦-|
30
口③②① |①-②-|
⑧③口⑨ |③-④⑤|
⑥③④⑦ |⑥-⑦-|
口⑤口口 |⑧-⑨-|
31
①口②口 |①-②-|
↑口口口 |③-|
↑口③口
口口①口

④口口口
⑨口⑤⑧ |④⑤|
⑦④口⑥ |⑥-⑦-|
口口口口 |⑧-⑨-|
32
口②口① |①-②-|
口口口↑ |③-|
口③口↑
口口口口

口口⑦④
⑨⑤口口 |④⑤|
⑥口④⑧ |⑥-⑦-|
口口口口 |⑧-⑨-|
33
口口口② |①-②-|
口口口口 |③-|
↓↓③口
①①口口

口⑦⑧口
口④⑥↓ |④-|
口口口↓ |⑤-⑥-|
④④口⑤ |⑦-⑧-|
34
②⑧⑩口 |①-②-|
⑥⑬口④ |③-④⑤|
⑤③⑫⑦ |⑥⑦⑧⑨|
口⑪⑨① |⑩⑪⑫⑬|
35
①③口① |①---|
⑥口⑥② |②---|
口④口③ |③-④-|
②口口⑤ |⑤-⑥-|
36
口④④① |①-②-|
⑥口口③ |③---|
③⑤②④ |④-⑤-|
⑦口口⑥ |⑥-⑦-|
37
①③口① |①---|
口口①② |②---|
口④口③ |③-④-|
口②口⑤ |⑤---|

↓↓口口
⑥⑥口口
口口口口
口口口口 |⑥-|
38
口③⑥① |①---|
②②④② |②-③④|
口⑤口⑤ |⑤-⑥-|
⑦口⑧⑦ |⑦-⑧-|
39
①口⑤② |①-②-|
③⑦⑦④ |③---|
④口③口 |④-⑤-|
⑥口口口 |⑥-⑦-|
40
①⑦口② |①-②-|
③口⑥口 |③---|
④⑤口③ |④-⑤-|
⑥口④口 |⑥-⑦-|
41
①口→① |①---|
口口口①
口口口↑
口口口口

口口⑤②
②④口② |②-③④|
⑤⑧③⑦ |⑤---|
⑥口⑨口 |⑥⑦⑧⑨|
42
①③口口 |①②③④|
⑤←←④ |⑤---|
口口口口
口口口②

口口口口
⑥口口口
⑥←←口 |⑥---|
口口口口

口口口口
口口口口
⑦口口口
⑦←←口 |⑦-|

口口口口
口⑨口口
口口⑧口
⑧口口口 |⑧⑨|
43
①口口① |①---|
口口口② |②---|
口口口口
口②口口

⑥⑥口口
③口④口
口口口③ |③-④-|
口口口⑤ |⑤-⑥-|
44
口口口① |①-②-|
④口⑤③ |③---|
⑥口⑦④ |④-⑤-|
②口③⑥ |⑥-⑦-|
45
①②口① |①--②|
④⑤口③ |③-④-|
⑧①口⑤ |⑤--⑥|
⑤⑥口⑦ |⑦-⑧-|
46
①⑧口① |①-②-|
④⑤⑥③ |③-④⑤|
口②②⑥ |⑥-⑦-|
⑦口⑨⑧ |⑧-⑨-|
47
①⑦⑦① |①---|
②口④③ |②-③-|
④口②⑤ |④-⑤-|
⑥口口口 |⑥-⑦-|
48
①口口⑤ |①-②-|
④③④③ |③---|
⑤口口⑤ |④---|
口②②口 |⑤---|
49
口①①口 |①---|
口口口口
口口口口
①←←←

⑤口口口
口⑥④口 |②-③-|
口③③口 |--④-|
④②②④ |--⑤⑥|
50
口②①口 |①-②-|
③口口口 |③-④⑤|
口口⑤③
口④②口

口口⑬⑩
口⑫⑨⑥
⑪⑧口口 |⑥⑦⑧⑨|
⑦口口口 |⑩⑪⑫⑬|
51
①③⑧⑥ |①-②-|
②口⑥④ |③-④-|
口口⑤⑦ |⑤-⑥-|
口⑧③① |⑦-⑧-|
52
③②口⑤ |①-②-|
④⑦⑦口 |③---|
口③④⑥ |④-⑤-|
②口口① |⑥-⑦-|
53
口口口口 |①---|
口口口口 |②-|
①←←口
口口②①

③←←←
口口口口 |③-|
③口口口 |④---|
⑤④口口 |⑤-|

口口口⑥
口口口⑦
口口口口
口口口口 |⑥⑦|
54
⑩⑤⑪口 |①-②③|
⑧⑥②口 |④-⑤⑥|
⑨⑦③① |⑦-⑧⑨|
⑩口④口 |⑩-⑪-|
55
口口口② |①-②-|
口口③口 |③-④-|
口④口③
口①口①

⑥口⑧口
口口口口
⑥口⑤口 |⑤-⑥-|
口⑧⑦口 |⑦-⑧-|
56
④②口口 |①-②-|
⑦③③口 |③---|
⑤口④③ |④-⑤-|
②口⑥① |⑥-⑦-|
57
口口→① |①---|
口口口口 |②-|
口①口②
口口口口

口口↓③
⑥口↓口 |③-|
⑦口③口 |④---|
口④⑤口 |⑤-⑥⑦|
58
⑤②⑦口 |①-②③|
⑧③口口 |④-⑤-|
口④④⑥ |⑥-⑦-|
①⑨口口 |⑧-⑨-|
59
④①⑧② |①-②-|
口⑥口⑥ |③-④-|
口③⑤⑦ |⑤-⑥-|
口⑧③① |⑦-⑧-|
60
⑦②口口 |①-②-|
口⑤口④ |③---|
⑦③④⑥ |④-⑤-|
②口③① |⑥-⑦-|
61
口口口① |①--②|
②口③口 |③-④-|
口口④口
口口口①

口⑤口⑧
口⑧口口
口⑦口⑥ |⑤--⑥|
口⑤口口 |⑦-⑧-|
62
⑤口①口 |①-②-|
②口⑦② |--③④|
口⑧③⑥ |⑤-⑥-|
⑤④①口 |⑦-⑧-|
63
口口④③ |①---|
①←口口 |②-③④|
口口口口
口口②①

口⑤口口
⑤↑口口
口↑⑤口 |⑤---|
口口口口

口⑦口口
口口⑧⑦
口口口⑥
口口口口 |⑥-⑦⑧|
64
②⑦⑤③ |①-②-|
④①口口 |③-④-|
口口⑧⑥ |⑤-⑥-|
⑦⑤③① |⑦-⑧-|
65
↓口口口 |①---|
↓口口口
①口口口
口口口口

⑥口口口
口③④⑤ |②-③④|
③②⑦↑ |⑤---|
口⑤口↑ |⑥-⑦-|
66
口③①⑥ |①-②-|
⑤⑦⑩① |③-④-|
⑨⑪口⑧ |⑤⑥⑦⑧|
②口⑫④ |⑨⑩⑪⑫|
67
⑤②④口 |①-②③|
↑口口① |④-⑤-|
↑口③口
①口口⑤

口口口⑦
口⑥⑨⑨
口口口⑧ |⑥-⑦⑧|
口口口口 |--⑨-|
68
④④④口 |--①②|
口口口口 |③-④-|
①口③口
口②口口

口口口⑨
⑤⑧口⑩
口口口⑪ |⑤⑥⑦⑧|
⑦口⑥⑫ |⑨⑩⑪⑫|
69
口口↓口 |①-②③|
口口①口 |④-|
口②③口
口④口口

口口⑥口
口⑦⑤⑧ |⑤-|
⑤口口口 |⑥-⑦⑧|
↑口口口

→⑨口口
口口口口
⑨口口口
口口口⑩ |⑨-⑩-|
70
⑤③⑨④ |--①②|
⑥⑩口口 |③-④-|
⑦③⑪① |⑤⑥⑦⑧|
⑧⑫②口 |⑨⑩⑪⑫|
71
⑤口口口 |①-②③|
口口③口 |④-⑤-|
口④口②
口口→①

口⑦口口
口⑨口⑥
⑧口⑨口 |⑥-⑦⑧|
口口口⑦ |--⑨-|
72
口口⑤⑤ |①-②③|
②口④口 |④-⑤-|
口③口口
①口①口

⑥⑩口口
口口口⑨
⑧口口⑪ |⑥⑦⑧⑨|
⑫口⑬⑦ |⑩⑪⑫⑬|
73
↓口口口 |①-②③|
①口口口
口③②口
口①口口

⑧↓⑧④
④④⑥口 |--④-|
口口口⑦ |⑤-⑥⑦|
口口口⑤ |--⑧-|
74
口⑤口口 |①②③④|
⑥①口① |⑤⑥⑦⑧|
④⑦②口
⑧③口口

⑬口⑮⑨
口⑯⑩口
口口口⑪ |⑨⑩⑪⑫|
口口⑫⑭ |⑬⑭⑮⑯|
75
口⑤←⑩ |①-②③|
⑤口⑥① |④-⑤-|
②⑨④⑦ |⑥-⑦⑧|
口③⑧口 |⑨-⑩-|
76
⑥⑤⑦口 |①-②③|
⑧②⑨① |④-⑤-|
①⑪③⑬ |⑥⑦⑧⑨|
⑩⑤⑫④ |⑩⑪⑫⑬|
77
口口口① |①-②③|
↓口口② |④-|
①口③口
口④口口

口口口口
口⑤口口 |⑤-|
⑤↑口口
口口口口

⑩→⑨口
⑨⑨⑦口
口⑧口口 |⑥-⑦⑧|
口口口⑥ |⑨-⑩-|
78
口口④口 |①-②③|
口口口⑤ |④-⑤-|
口口口①
②③④口

口⑥口⑦
⑩口⑪口
⑧⑫⑨⑬ |⑥⑦⑧⑨|
口口口口 |⑩⑪⑫⑬|
79
口⑤口口 |①-②③|
口②口④ |④-⑤-|
口口口口
①←③①

口口⑩⑥
口口⑩口
⑨口⑦口 |⑥-⑦⑧|
⑦⑧口口 |⑨-⑩-|
80
①⑤口口 |①-②③|
⑤口口口 |④-⑤-|
口④口②
口口③①

⑬口⑩⑥
口⑧口口
⑪口⑦口 |⑥⑦⑧⑨|
⑨口口⑫ |⑩⑪⑫⑬|
81
口口口↓ |①-②③|
口口口① |④-|
口②口口
口③④口

⑩⑥↓口
⑤⑧⑤⑤ |⑤-|
⑨口⑦口 |⑥-⑦⑧|
口口口口 |⑨-⑩-|
82
口口口口 |①-②-|
③口①口 |③-④-|
口④口②
①口口口

⑪⑨⑦⑤
口口口口
口口口口 |⑤⑥⑦⑧|
⑫⑩⑧⑥ |⑨⑩⑪⑫|
83
口口↓口 |①---|
口①↓口
口↑①口
口↑口口

口口口口
口②→② |--②-|
②←②口 |----|
口口口口 |----|
84
口口口口 |----|
口口口口 |----|
口口口口 |----|
口口口口 |----|
85
口口口口 |----|
口口口口 |----|
口口口口 |----|
口口口口 |----|
86
口口口口 |①---|
口口口① |----|
①口口口 |----|
口口口口 |----|
最終更新:2020年11月15日 15:23