アットウィキロゴ
Apex of the World
uma&hurirai feat.ましろ

BASIC

Level: 3
BPM: 169
Notes: 229

1
口口口口 |----|
口口口口 |----|
口口口口 |----|
口口口口 |----|
2
口口口口 |----|
口口口口 |----|
口口口口 |----|
口口口口 |----|
3
口口口口 |----|
口口口口 |----|
口口口口 |----|
口口口口 |----|
4
口口口口 |----|
口口口口 |----|
口口口口 |----|
口口口口 |----|
5
口口口口 |----|
口口口口 |----|
口口口口 |----|
口口口口 |----|
6
口口口口 |①---|
口口口口 |----|
口①①口 |----|
口口口口 |----|
7
口口口口 |①---|
口①①口 |----|
口口口口 |----|
口口口口 |----|
8
口①①口 |①---|
口口口口 |----|
口口口口 |----|
口口口口 |----|
9
①口口① |①---|
口口口口 |----|
口口口口 |----|
口口口口 |----|
10
口口口口 |①---|
口①①口 |----|
口①①口 |----|
口口口口 |----|
11
口口口口 |----|
口口口口 |----|
口口口口 |----|
口口口口 |----|
12
口口口口 |①---|
口口口口 |----|
口口口口 |----|
口①①口 |----|
13
口口口口 |①---|
口口口③ |②---|
口口口② |③---|
口口口① |----|
14
口口口口 |①---|
③口口口 |②---|
②口口口 |③---|
①口口口 |----|
15
口口口口 |①---|
口口口③ |②---|
口口口② |③---|
口口口① |----|
16
②口口② |①---|
口①①口 |----|
口口口口 |②---|
口口口口 |----|
17
口口口口 |①---|
③口口口 |②---|
②口口口 |③---|
①口口口 |----|
18
口口口口 |①---|
口口口③ |②---|
口口口② |③---|
口口口① |----|
19
口口口口 |①---|
③口口口 |②---|
②口口口 |③---|
①口口口 |----|
20
②口口② |①---|
口①①口 |----|
口口口口 |②---|
口口口口 |----|
21
口口口口 |①---|
口口口口 |----|
口口口口 |②---|
口口②① |----|
22
口口口口 |①---|
口口口口 |----|
口口口口 |②---|
②①口口 |----|
23
口③口口 |①---|
口②口口 |②---|
口①口口 |③---|
口口口口 |----|
24
口口①口 |①---|
口口②口 |②---|
口口③口 |③---|
口口口口 |----|
25
口口口口 |①---|
口口口口 |----|
口口口口 |②---|
①②口口 |----|
26
口口口口 |①---|
口口口口 |----|
口口口口 |②---|
口口①② |----|
27
口口③口 |①---|
口口②口 |②---|
口口①口 |③---|
口口口口 |----|
28
口①口口 |①---|
口②口口 |②---|
口③口口 |③---|
口口口口 |----|
29
①口口① |①---|
口口口口 |----|
口口口口 |----|
口口口口 |----|
30
口口口口 |①---|
①口口① |----|
口口口口 |----|
口口口口 |----|
31
口口口口 |①---|
口口口口 |----|
①口口① |----|
口口口口 |----|
32
口口口口 |①---|
口口口口 |----|
口口口口 |----|
①口口① |----|
33
口口口① |①---|
口口口② |②---|
口口口③ |③---|
口口口口 |----|
34
①口口口 |①---|
②口口口 |②---|
③口口口 |③---|
口口口口 |----|
35
口口口口 |①---|
口口口口 |----|
口口口口 |----|
口①①口 |----|
36
口口口口 |①---|
口①①口 |----|
口口口口 |----|
口口口口 |----|
37
口口①① |①---|
口口②② |----|
口口口口 |②---|
口口口口 |----|
38
口口口口 |①---|
口①口口 |②---|
口②口口 |③---|
口③口口 |----|
39
口口口口 |①---|
口②口口 |----|
口口①口 |②---|
口口口口 |----|
40
口①①口 |①---|
口口口口 |----|
口口口口 |----|
口口口口 |----|
41
①①口口 |①---|
②②口口 |----|
口口口口 |②---|
口口口口 |----|
42
口口口口 |①---|
口口①口 |②---|
口口②口 |③---|
口口③口 |----|
43
口口口口 |①---|
口①②口 |----|
口口口口 |②---|
口口口口 |----|
44
①口口① |①---|
②口口② |②---|
③口口③ |③---|
口口口口 |----|
45
口口口口 |①---|
口口口口 |----|
口口口口 |----|
口①①口 |----|
46
口口口口 |①---|
口口口口 |----|
口①①口 |----|
口口口口 |----|
47
口口口口 |①---|
口①①口 |----|
口口口口 |----|
口口口口 |----|
48
②②①① |①---|
口口口口 |----|
口口口口 |②---|
口口口口 |----|
49
口口口口 |①---|
口口①口 |②---|
口口②口 |③---|
口口③口 |----|
50
口口口口 |①---|
口①口口 |②---|
口②口口 |③---|
口③口口 |----|
51
口口口口 |①---|
口口口口 |----|
①口口① |----|
口口口口 |----|
52
口口口口 |①---|
①口口① |----|
口口口口 |----|
口口口口 |----|
53
口③②① |①---|
口口口口 |②---|
口口口口 |③---|
口口口口 |----|
54
口口口口 |①---|
口①②③ |②---|
口口口口 |③---|
口口口口 |----|
55
口口口口 |①---|
口口口口 |②---|
口③②① |③---|
口口口口 |----|
56
口口口口 |①---|
口口口口 |②---|
口口口口 |③---|
口①②③ |----|
57
口口口口 |①---|
口口口口 |----|
口①①口 |----|
口口口口 |----|
58
口口口口 |①---|
口①①口 |----|
口口口口 |----|
口口口口 |----|
59
口①①口 |①---|
口口口口 |----|
口口口口 |----|
口口口口 |----|
60
①口口① |①---|
口口口口 |----|
口口口口 |----|
口口口口 |----|
61
口口口口 |①---|
口①①口 |----|
口①①口 |----|
口口口口 |----|
62
口口口口 |----|
口口口口 |----|
口口口口 |----|
口口口口 |----|
63
口口口口 |①---|
口②口口 |----|
口口①口 |②---|
口口口口 |----|
64
口①①口 |①---|
口口口口 |----|
口口口口 |----|
口口口口 |----|
65
①①口口 |①---|
②②口口 |----|
口口口口 |②---|
口口口口 |----|
66
口口口口 |①---|
口口①口 |②---|
口口②口 |③---|
口口③口 |----|
67
口口口口 |①---|
口①②口 |----|
口口口口 |②---|
口口口口 |----|
68
①口口① |①---|
②口口② |②---|
③口口③ |③---|
口口口口 |----|
69
口口①① |①---|
口口②② |----|
口口口口 |②---|
口口口口 |----|
70
口口口口 |①---|
口①口口 |②---|
口②口口 |③---|
口③口口 |----|
71
口口口口 |①---|
口②口口 |----|
口口①口 |②---|
口口口口 |----|
72
口①①口 |①---|
口口口口 |----|
口口口口 |----|
口口口口 |----|
73
①①口口 |①---|
②②口口 |----|
口口口口 |②---|
口口口口 |----|
74
口口口口 |①---|
口口①口 |②---|
口口②口 |③---|
口口③口 |----|
75
口口口口 |①---|
口①②口 |----|
口口口口 |②---|
口口口口 |----|
76
①口口① |①---|
②口口② |②---|
③口口③ |③---|
口口口口 |----|
77
口口口口 |①---|
口②①口 |----|
口口口口 |②---|
口口口口 |----|
78
口口口① |①---|
口口口② |②---|
口口口③ |③---|
口口口④ |④---|
79
口口口口 |①---|
口①②口 |----|
口口口口 |②---|
口口口口 |----|
80
①口口口 |①---|
②口口口 |②---|
③口口口 |③---|
④口口口 |④---|
81
口口口口 |①---|
口②②口 |----|
口①①口 |②---|
口口口口 |----|
82
①口口① |①---|
②口口② |②---|
③口口③ |③---|
④口口④ |④---|
83
口口口口 |①---|
口口口口 |----|
②口口② |②---|
口①①口 |----|
84
口口口口 |①---|
口①①口 |----|
口口口口
口口口口

②③③②
口③③口
口口口口 |②---|
口口口口 |③---|

accuracy: 100%
最終更新:2022年07月19日 23:53