アットウィキロゴ
Apex of the World
uma&hurirai feat.ましろ

ADVANCED

Level: 6
BPM: 169
Notes: 557

1
口口口口 |----|
口口口口 |----|
口口口口 |----|
口口口口 |----|
2
口口口口 |----|
口口口口 |----|
口口口口 |----|
口口口口 |----|
3
口口口口 |----|
口口口口 |----|
口口口口 |----|
口口口口 |----|
4
口口口口 |----|
口口口口 |----|
口口口口 |----|
口口口口 |----|
5
口口口口 |----|
口口口口 |----|
口口口口 |----|
口口口口 |----|
6
①口口口 |①---|
②口口口 |②---|
③口口口 |③---|
④口口口 |④---|
7
口口口① |①---|
口口口② |②---|
口口口③ |③---|
口口口④ |④---|
8
口口口口 |①---|
口②②口 |----|
口①①口 |②---|
口口口口 |----|
9
①口口① |①---|
口口口口 |----|
口口口口 |----|
口口口口 |----|
10
口①①口 |①---|
口①①口 |----|
口口口口 |----|
②口口② |--②-|
11
口口口口 |----|
口口口口 |----|
口口口口 |----|
口口口口 |----|
12
口口口口 |①---|
口口口口 |----|
口口口口 |----|
口①①口 |----|
13
⑦口口⑥ |①--②|
③口口③ |--③-|
②⑤④② |④-⑤-|
①口口① |⑥-⑦-|
14
口⑥口口 |①--②|
③口⑤③ |--③-|
②④口② |④-⑤-|
①口口① |⑥---|
15
⑦口口⑥ |①--②|
③口口③ |--③-|
②⑤④② |④-⑤-|
①口口① |⑥-⑦-|
16
⑥口口⑥ |①-②-|
⑤⑥⑥⑤ |③-④-|
口④③口 |⑤---|
口②①口 |⑥---|
17
⑦口口⑥ |①--②|
③口口③ |--③-|
②⑤④② |④-⑤-|
①口口① |⑥-⑦-|
18
口⑥口口 |①--②|
③口⑤③ |--③-|
②④口② |④-⑤-|
①口口① |⑥---|
19
⑦口口⑥ |①--②|
③口口③ |--③-|
②⑤④② |④-⑤-|
①口口① |⑥-⑦-|
20
口口口口 |①-②-|
⑤口口⑤ |③-④-|
口④③口 |⑤---|
⑥②①⑥ |⑥---|
21
③②④① |①---|
口口口口 |--②-|
口口口口 |③---|
口①③口 |--④-|
22
③②口① |①---|
口口口口 |--②-|
④口口口 |③---|
口①③口 |--④-|
23
⑥口口⑥ |①-②-|
口⑤④③ |③-④-|
口①②口 |⑤---|
口口口口 |⑥---|
24
口口口口 |①-②-|
⑥口口⑤ |③-④-|
⑥②①⑤ |⑤---|
④口口③ |⑥---|
25
口①③口 |①---|
口口口口 |--②-|
口口口口 |③---|
③②④① |--④-|
26
口①③口 |①---|
④口口口 |--②-|
口口口口 |③---|
③②口① |--④-|
27
口口口口 |①-②-|
口①②口 |③-④-|
口⑤④③ |⑤---|
⑥口口⑥ |⑥---|
28
④口口③ |①-②-|
⑥②①⑤ |③-④-|
⑥口口⑤ |⑤---|
口口口口 |⑥---|
29
④口口口 |①---|
口③口口 |②---|
口口②口 |③---|
①①①① |④---|
30
口⑤①口 |①---|
⑤口口① |②-③-|
口②口口 |--④-|
口③口④ |--⑤-|
31
口口⑦口 |--①-|
口⑥①⑦ |②-③-|
口⑤②口 |④-⑤-|
口④③口 |⑥-⑦-|
32
口口口口 |--①-|
口④口口 |②---|
③口①口 |----|
口口②口 |③-④-|
33
①口口口 |①---|
口口口口 |----|
口口③口 |----|
口口口② |②-③-|
34
口口口口 |①---|
口口口① |----|
口口口口 |----|
②口口② |②---|
35
⑤②①口 |①---|
②口口① |--②-|
④口口③ |--③-|
口口口⑤ |④-⑤-|
36
口口①① |--①-|
②②口口 |②-③-|
口口③③ |④---|
④④口口 |----|
37
口①口① |①---|
口口口口 |②---|
口口口口
②口②口

口口⑤⑤
④③口⑤
口口口口 |③-④-|
口口口口 |--⑤-|
38
口口口口 |--①-|
口口口口 |②-③-|
③口口④ |④---|
①口口② |----|
39
口①②口 |①---|
①口口② |②---|
口口口口
口口口口

⑥⑥口口
口⑤口口
口④口口 |③-④-|
口③口口 |⑤-⑥-|
40
口口口口 |--①-|
口口口口 |②---|
口口口① |----|
口口口② |----|
41
①口①口 |①---|
口口口口 |②---|
口口口口
口②口②

⑤⑤口口
⑤口③④
口口口口 |③-④-|
口口口口 |--⑤-|
42
口口口口 |--①-|
口口口口 |②-③-|
④口口③ |④---|
②口口① |----|
43
②口口① |①---|
口②①口 |②---|
口⑥⑤口 |③-④-|
口④③口 |⑤-⑥-|
44
②②①① |①---|
口口口口 |②---|
口口口口 |③---|
③口口③ |----|
45
⑤口口③ |①---|
口④②口 |--②-|
口①①口 |③-④-|
口①①口 |⑤---|
46
⑧口口⑥ |①-②-|
⑦口口⑤ |③-④-|
④口口② |⑤-⑥-|
③口口① |⑦-⑧-|
47
口③①口 |①-②-|
口④②口 |③-④-|
口⑦⑤口 |⑤-⑥-|
口⑧⑥口 |⑦-⑧-|
48
②②①① |①---|
口口口口 |②---|
口口口口 |③---|
③口口③ |----|
49
③口口⑥ |①-②-|
口②⑤口 |③-④-|
口④①口 |⑤-⑥-|
口⑦⑦口 |⑦---|
50
口②③口 |①-②-|
①口口④ |③-④-|
⑧口口⑤ |⑤-⑥-|
口⑦⑥口 |⑦-⑧-|
51
口②②口 |①---|
②①①② |----|
口①①口 |----|
口口口口 |②---|
52
③口口③ |①--②|
口口口口 |--③-|
②口口① |----|
②口口① |----|
53
口口口口 |①---|
①⑤④① |----|
口③②口 |②-③-|
口①①口 |④-⑤-|
54
口③②① |--①-|
④⑤⑥⑦ |②-③-|
口口口口 |④-⑤-|
口口口口 |⑥-⑦-|
55
口口口口 |①-②-|
口⑧⑦口 |③-④-|
口⑥⑤④ |⑤-⑥-|
①②③口 |⑦-⑧-|
56
③口口① |①-②-|
④口口② |③-④-|
口口口口 |----|
口口口口 |----|
57
口口⑦⑧ |①-②-|
口口⑤⑥ |③-④-|
口口③④ |⑤-⑥-|
①口①② |⑦-⑧-|
58
⑧⑦口口 |①-②-|
⑥⑤口口 |③-④-|
④③口口 |⑤-⑥-|
②①口① |⑦-⑧-|
59
③口口口 |①---|
②口口② |--②-|
②口口② |----|
口①①③ |--③-|
60
口口①① |--①-|
②②口口 |②-③-|
口口③③ |④---|
④④口口 |----|
61
口①①口 |①---|
口①①口 |----|
口口口口 |----|
②口口② |--②-|
62
口口口口 |----|
口口口口 |----|
口口口口 |----|
口口口口 |----|
63
口①②口 |①---|
①口口② |②---|
口口口口
口口口口

⑥⑥口口
口⑤口口
口④口口 |③-④-|
口③口口 |⑤-⑥-|
64
口口口口 |--①-|
口口口口 |②---|
口口口① |----|
口口口② |----|
65
①口①口 |①---|
口口口口 |②---|
口口口口
口②口②

⑤⑤口口
⑤口③④
口口口口 |③-④-|
口口口口 |--⑤-|
66
口口口口 |--①-|
口口口口 |②-③-|
④口口③ |④---|
②口口① |----|
67
②口口① |①---|
口②①口 |②---|
口⑥⑤口 |③-④-|
口④③口 |⑤-⑥-|
68
②②①① |①---|
口口口口 |②---|
口口口口 |③---|
③口口③ |----|
69
口③②① |①---|
④口口口 |②---|
口③②① |③---|
口口口口 |--④-|
70
⑦口口口 |①-②-|
⑥①②口 |③-④-|
⑤口③口 |--⑤-|
口口④口 |⑥-⑦-|
71
④口口① |①---|
口④①口 |②---|
口②③口 |③---|
②口口③ |④---|
72
口⑦⑥⑤ |①-②-|
口口口口 |③-④-|
口④③口 |--⑤-|
口②①口 |⑥-⑦-|
73
①口口口 |①---|
①口口② |②---|
③口口② |③---|
③⑤④口 |④-⑤-|
74
⑤⑥⑦口 |①-②-|
口③②口 |③-④-|
④口口① |--⑤-|
口口口口 |⑥-⑦-|
75
口口口① |①---|
②口口① |②---|
②口口③ |③-④-|
④⑤⑤③ |--⑤-|
76
⑤口口⑤ |--①-|
②①①② |②-③-|
④③③④ |④---|
口口口口 |⑤---|
77
④口口③ |①---|
⑤口口② |--②-|
⑥口口口 |③-④-|
口①①口 |⑤-⑥-|
78
口口④口 |--①-|
口③口④ |②-③-|
口②口⑤ |④---|
口①⑤口 |⑤---|
79
①口口③ |①-②-|
②口口④ |③-④-|
口口口口 |⑤-⑥-|
⑤⑥⑦⑧ |⑦-⑧-|
80
⑤口口⑤ |--①-|
④口口④ |②-③-|
③②①口 |④---|
口口口口 |⑤---|
81
⑧①①⑧ |①-②-|
⑦②②⑦ |③-④-|
⑥③③⑥ |⑤-⑥-|
⑤④④⑤ |⑦-⑧-|
82
⑦②②⑦ |①-②-|
⑥④④⑥ |③-④-|
⑤①①⑤ |⑤-⑥-|
③口口③ |⑦---|
83
口⑤④口 |①---|
口⑥③口 |--②-|
②口口② |③-④-|
①①①① |⑤-⑥-|
84
⑤⑤⑤⑤ |--①-|
口口口① |②-③-|
②口口口 |④---|
口④④③ |⑤---|

accuracy: 100%
最終更新:2022年07月20日 00:07