アットウィキロゴ
Apex of the World
uma&hurirai feat.ましろ

EXTREME

Level: 9.2
BPM: 169
Notes: 761

1
口口口口 |----|
口口口口 |----|
口口口口 |----|
口口口口 |----|
2
口口口口 |----|
口口口口 |----|
口口口口 |----|
口口口口 |----|
3
口口口口 |----|
口口口口 |----|
口口口口 |----|
口口口口 |----|
4
口口口口 |----|
口口口口 |----|
口口口口 |----|
口口口口 |----|
5
口口口口 |----|
口口口口 |----|
口口口口 |----|
口口口口 |----|
6
①口口口 |①---|
②口口口 |②---|
③口口口 |③---|
④口口口 |④---|
7
口口口① |①---|
口口口② |②---|
口口口③ |③---|
口口口④ |④---|
8
口②①口 |①---|
②口口① |----|
①口口② |②---|
口①②口 |----|
9
①口口① |①---|
口口口口 |----|
口①①口 |----|
口口口口 |----|
10
③①①③ |①---|
①口口① |----|
③②②③ |②---|
口②②口 |--③-|
11
口④③口 |--①-|
口②①口 |②-③-|
口口口口 |④---|
口口口口 |----|
12
②口口口 |①---|
口②口口 |----|
②口口口 |----|
①①①① |②---|
13
口口③口 |①--②|
口口②③ |--③-|
口口①②
口口口①

④口口⑧
口口口口
口口⑦口 |④-⑤⑥|
口⑥⑤口 |⑦-⑧-|
14
口③口口 |①--②|
③②口口 |--③-|
②①口口
①口口口

⑦口口口
口口口⑥
口⑦口口 |④⑤⑥-|
口⑤④口 |⑦---|
15
口口③口 |①--②|
口口②③ |--③-|
口口①②
口口口①

④口口⑧
口口口口
口口⑦口 |④-⑤⑥|
口⑥⑤口 |⑦-⑧-|
16
⑦③③⑦ |①-②-|
口②②口 |③-④⑤|
①口口口 |⑥---|
口⑥⑤④ |⑦---|
17
口③口口 |①--②|
③②口口 |--③-|
②①口口
①口口口

⑧口口④
口口口口
口⑦口口 |④-⑤⑥|
口⑤⑥口 |⑦-⑧-|
18
口口③口 |①--②|
口口②③ |--③-|
口口①②
口口口①

口口口⑦
⑥口口口
口口⑦口 |④⑤⑥-|
口④⑤口 |⑦---|
19
口③口口 |①--②|
③②口口 |--③-|
②①口口
①口口口

⑧口口④
口口口口
口⑦口口 |④-⑤⑥|
口⑤⑥口 |⑦-⑧-|
20
口⑥⑥③ |①-②-|
口⑤口③ |③-④⑤|
②口④① |⑥---|
②⑦⑦① |⑦---|
21
①口口① |①---|
②口⑥口 |②-③-|
④口口② |④---|
⑤口口③ |⑤-⑥-|
22
口①口③ |①---|
口②口④ |②-③-|
口④①口 |④---|
口⑤口⑥ |⑤-⑥-|
23
①口口② |①-②-|
③口①口 |③-④-|
口口④口
口口③口

口口⑤口
口口⑥口
⑤口口口 |⑤---|
⑥口口⑥ |⑥---|
24
①口⑤① |①-②-|
⑤②⑤口 |③-④-|
③⑥口③ |⑤---|
口⑥④⑥ |⑥---|
25
①口口① |①---|
口⑥口② |②-③-|
③口口④ |④---|
④口口⑤ |⑤-⑥-|
26
③口①口 |①---|
④口②口 |②-③-|
口①④口 |④---|
⑥口⑤口 |⑤-⑥-|
27
②口口① |①-②-|
口①口③ |③-④-|
口④口口
口③口口

口⑤口口
口⑥口口
口口口⑤ |⑤---|
⑥口口⑥ |⑥---|
28
①⑤口① |①-②-|
口⑤②⑤ |③-④-|
③口⑥③ |⑤---|
⑥④⑥口 |⑥---|
29
②口①① |①---|
③口口口 |②---|
④①口口 |③---|
口口口口 |④---|
30
④口①⑤ |①---|
口③②⑤ |②-③-|
口口口① |--④-|
口①口口 |--⑤-|
31
⑦口⑦口 |--①-|
口口口口 |②-③-|
口⑥⑤④ |④-⑤-|
①②③口 |⑥-⑦-|
32
口口口口 |--①-|
口④口口 |②---|
③口③口 |----|
口④①② |③-④-|
33
口口③口 |①---|
①②①② |----|
口口③口 |----|
①口①口 |②-③-|
34
口①口① |①---|
口口口口 |----|
口①口① |----|
口②口口 |②---|
35
④口口口 |①---|
②口口③ |--②-|
口②口口 |--③-|
⑤口①⑤ |④-⑤-|
36
④口口② |--①-|
口③①口 |②-③-|
③④②① |④---|
口①③口 |----|
37
口口①① |①---|
②②口口 |②---|
口口①①
②②口口

④口口口
口口口口
③⑤口⑤ |③-④-|
口口⑤口 |--⑤-|
38
口口口④ |--①-|
③口口口 |②-③-|
口口②口 |④---|
口①口⑤ |--⑤-|
39
口①口② |①---|
口口①口 |②---|
①口②口
口②口口

口口⑥口
⑤口⑥⑥
口④口口 |③-④-|
口口③口 |⑤-⑥-|
40
②①口口 |--①-|
⑤口口口 |②---|
口口④口 |--③-|
③口口口 |④-⑤-|
41
①①口口 |①---|
口口②② |②---|
①①口口
口口②②

口口口④
口口口口
⑤口⑤③ |③-④-|
口⑤口口 |--⑤-|
42
④口口口 |--①-|
口口口③ |②-③-|
口②⑥⑤ |④---|
口口①口 |--⑤⑥|
43
口①口⑥ |①---|
①口口⑤ |②---|
②口口④ |③-④-|
口②口③ |⑤-⑥-|
44
④④口口 |①-②-|
③③口口 |③---|
①①②口 |④---|
口口③口 |----|
45
口口口⑥ |①---|
⑤口口⑧ |--②-|
⑦口口④ |③-④⑤|
①③②① |⑥-⑦⑧|
46
①⑦⑥口 |①-②③|
口⑤④口 |④⑤⑥⑦|
口③②口
口口口口

⑮口口⑭
⑬口口⑫
⑪口口⑩ |⑧⑨⑩⑪|
⑨口口⑧ |⑫⑬⑭⑮|
47
⑭⑯⑮⑬ |①②③④|
⑫⑩⑨⑪ |⑤⑥⑦⑧|
⑧②①⑦ |⑨⑩⑪⑫|
⑥④③⑤ |⑬⑭⑮⑯|
48
口口口口 |①---|
口③③口 |②---|
③口口③ |③---|
②②①① |----|
49
④③②① |①②③④|
口口口口 |--⑤⑥|
⑨⑩⑪⑫ |⑦⑧--|
⑤⑥⑦⑧ |⑨⑩⑪⑫|
50
①②⑧⑦ |①②③④|
⑤⑥④③ |⑤⑥⑦⑧|
⑨⑩⑯⑮ |⑨⑩⑪⑫|
⑬⑭⑫⑪ |⑬⑭⑮⑯|
51
①③⑧④ |①②③④|
⑤⑦⑥② |⑤⑥⑦⑧|
⑨⑪⑯⑫ |⑨⑩⑪⑫|
⑬⑮⑭⑩ |⑬⑭⑮⑯|
52
①①②② |①--②|
①③③② |--③-|
口口口口 |----|
口口口口 |----|
53
口口口口 |①---|
口口口口 |----|
口口口口
①①①①

口口口③
口④口口
口口②口 |②-③-|
⑤口口口 |④-⑤-|
54
口口口⑦ |--①-|
口口口① |②-③-|
④⑤⑥② |④⑤⑥-|
口口⑧③ |⑦-⑧-|
55
⑦⑥⑤口 |①②③-|
①②③口 |④-⑤⑥|
口⑧口口 |⑦-⑧-|
④⑩⑨口 |⑨-⑩-|
56
⑤口口① |①②③④--|
口口⑦② |⑤-⑥-|
⑥⑧口③ |--⑦-|
⑨口口④ |⑧-⑨-|
57
②④⑬⑮ |①②③④|
⑧⑥⑪⑨ |⑤⑥⑦⑧|
⑩⑫⑤⑦ |⑨⑩⑪⑫|
⑯⑭③① |⑬⑭⑮⑯|
58
②⑧口口 |①②③④|
口④口⑤ |⑤⑥⑦⑧|
⑥口③口
口口⑦①

⑯口口⑬
⑩口⑪口
口⑫口⑨ |⑨⑩⑪⑫|
⑭口口⑮ |⑬⑭⑮⑯|
59
口口①口 |①---|
③②口③ |--②-|
口口①口 |----|
口②口口 |--③-|
60
④口口② |--①-|
口③①口 |②-③-|
③④②① |④---|
口①③口 |----|
61
口口①① |①---|
②②口口 |----|
口口①① |----|
②②口口 |--②-|
62
口口口口 |----|
口口口口 |----|
口口口口 |----|
口口口① |--①-|
63
口①口② |①---|
口口①口 |②---|
①口②口
口②口口

口口⑥口
⑤口⑥⑥
口④口口 |③-④-|
口口③口 |⑤-⑥-|
64
②①口口 |--①-|
⑤口口口 |②---|
口口④口 |--③-|
③口口口 |④-⑤-|
65
①①口口 |①---|
口口②② |②---|
①①口口
口口②②

口口口④
口口口口
⑤口⑤③ |③-④-|
口⑤口口 |--⑤-|
66
④口口口 |--①-|
口口口③ |②-③-|
口②⑥⑤ |④---|
口口①口 |--⑤⑥|
67
口①口⑥ |①---|
①口口⑤ |②---|
②口口④ |③-④-|
口②口③ |⑤-⑥-|
68
④④口口 |①-②-|
③③⑦⑤ |③---|
①①②口 |④-⑤-|
口口③⑥ |⑥-⑦-|
69
④②②② |①---|
①口口口 |②---|
①口口口 |③---|
①③③③ |--④-|
70
口①口口 |①-②-|
⑥⑤②⑦ |③-④-|
⑦③⑤⑥ |--⑤-|
④口口口 |⑥-⑦-|
71
①③①③ |①---|
口④②口 |②---|
口①③口 |③---|
④②④② |④---|
72
④口①口 |①-②-|
④口①口 |③-④-|
口②口③
口②口③

口⑦口口
口口⑥⑤
口口口口 |--⑤-|
口口口口 |⑥-⑦-|
73
④口③① |①---|
⑤②口口 |②---|
口口②口 |③---|
①③口口 |④-⑤-|
74
口口口口 |①-②-|
口⑤①① |③-④-|
③③⑥② |--⑤-|
④口口⑦ |⑥-⑦-|
75
口口②② |①---|
口口口口 |②---|
①①口口
口口口口

口口口口
⑤③③⑤
⑤口口⑤ |③-④-|
口④④口 |--⑤-|
76
①③④② |--①-|
口⑤⑤口 |②-③-|
口⑤⑤口 |④---|
②④③① |⑤---|
77
①⑤口① |①---|
口口③口 |--②-|
④口⑥口 |③-④-|
口口⑥② |⑤-⑥-|
78
⑤口口④ |--①-|
①②③口 |②-③-|
⑤口口④ |④---|
口④⑤口 |⑤---|
79
⑧口口⑦ |①②③-|
⑩⑥③⑨ |④⑤⑥-|
⑫②⑤⑪ |⑦⑧⑨⑩|
①口⑬④ |⑪⑫⑬-|
80
口③⑤⑤ |--①②|
口口②⑤ |③-④-|
⑥①口口 |⑤---|
⑥⑥口④ |⑥---|
81
⑤口口⑥ |①②③④|
⑦①②口 |⑤⑥⑦⑧|
口③④口
口口口⑧

口口口口
口⑭⑮⑯
⑬口口⑫ |⑨⑩⑪⑫|
⑨⑩⑪口 |⑬⑭⑮⑯|
82
①②④③ |①②③④|
⑮⑫⑬⑭ |⑤⑥⑦⑧|
口⑨⑩⑪ |⑨⑩⑪⑫⑬⑭|
⑤⑥⑧⑦ |⑮---|
83
①口口① |①---|
口口口口 |--②-|
口口口口
口②②口

⑤口③口
口⑤口③
⑥口口④ |③-④-|
⑥口口④ |⑤-⑥-|
84
口③⑤⑤ |--①②|
口口②⑤ |③-④-|
⑥①口口 |⑤---|
⑥⑥口④ |⑥---|

accuracy: 100%
最終更新:2022年07月20日 00:50