アットウィキロゴ
僕らの時間
テヅカ feat. 大西あみみ

EXTREME

Level: 10.0
BPM: 214
Notes(hold): 787(37)

1
⑧口口口 |①-②-③-|
口③⑨① |④-⑤-⑥-|
⑦⑥⑤④ |⑦---⑧-|
⑩口②口 |⑨---⑩-|
2
口⑦①⑦ |①-----|
③④口① |②-----|
口⑤⑥口 |③-④-⑤-|
口②②口 |⑥---⑦-|
3
⑤口口⑥ |----①-|
⑤口②④ |②---③-|
①口口口 |④-----|
口③口④ |⑤---⑥-|
4
口④②口 |①---②-|
口⑧⑥⑧ |③---④-|
口③①⑤ |⑤---⑥-|
口⑦口口 |⑦---⑧-|
5
③③口口 |----①-|
①口口口 |②-----|
口⑦②口 |③---④-|
口⑥⑤④ |⑤-⑥-⑦-|
6
口口②口 |①---②③|
⑥⑤③⑦ |④---⑤-|
①⑨④⑧ |⑥---⑦-|
口口口口 |⑧---⑨-|
7
①②③④ |①-②-③-|
⑥⑧口口 |④---⑤-|
⑧口⑦口 |----⑥-|
⑤⑤口口 |⑦---⑧-|
8
口③⑤⑤ |①---②-|
⑦口⑦① |③---④-|
口④口口 |⑤---⑥-|
口⑥⑥② |----⑦-|
9
①口④口 |----①-|
口②口② |②---③-|
③⑤口④ |----④-|
口⑥口口 |⑤---⑥-|
10
④①⑥口 |①---②-|
①④②⑤ |③-----|
口⑥③口 |④---⑤-|
口口口口 |----⑥-|
11
③口口⑤ |----①-|
口口口口 |②-----|
④口口⑥ |③---④-|
口口②① |⑤---⑥-|
12
口口①口 |①-----|
②④④① |②---③-|
口⑤⑤口 |----④-|
口③口口 |⑤-----|
13
①口口口 |①-----|
口⑤④⑥ |②-----|
③口口② |③---④-|
口口口口 |⑤---⑥-|
14
③②①口 |①-②-③-|
⑦⑩口⑩ |④-⑤-⑥-|
口⑥⑤④ |⑦---⑧-|
口⑨⑧口 |⑨---⑩-|
15
①②口⑥ |----①-|
④口口⑥ |②-----|
口③⑤③ |③---④-|
口口口口 |⑤---⑥-|
16
口口口口 |①---②-|
口④⑤口 |③---④-|
⑥⑦口⑧ |⑤---⑥-|
①③②口 |⑦---⑧-|
17
口②①② |①-----|
①⑤⑥② |②-----|
口口①口 |③-④-⑤-|
③口口④ |⑥-----|
18
①③①口 |①-----|
③⑤口④ |②-----|
口②④口 |③---④-|
口⑤口口 |----⑤-|
19
④口④口 |----①-|
口口②口 |②-----|
①③口口 |③-----|
口口②口 |④-----|
20
口口口口 |①-----|
②②③③ |②-----|
④④①① |③-----|
口口口口 |④-----|
21
口①①口 |①-----|
口口口③ |②-----|
口口口口 |------|
②口口② |③-----|
22
口口口① |①-----|
①口④④ |②-----|
口②口口 |③-----|
口⑤③口 |④---⑤-|
23
③②①口 |①-----|
④④口口 |②-----|
②③①口 |③-----|
口口口口 |④-----|
24
口口①口 |①-----|
④④口① |②-----|
口口②口 |③-----|
口③⑤口 |④---⑤-|
25
口①②③ |①-----|
口口④④ |②-----|
口①③② |③-----|
口口口口 |④-----|
26
②⑥③口 |①---②-|
⑧口口口 |③---④-|
①④⑦⑤ |⑤---⑥-|
口①口口 |⑦---⑧-|
27
口口口① |①---②-|
口⑥⑥① |③-④-⑤-|
⑦口口⑦ |⑥-----|
②③④⑤ |⑦-----|
28
口口②口 |①-----|
①④⑤② |②---③-|
口①③口 |----④-|
④③口⑤ |----⑤-|
29
①⑥口⑤ |①-②-③-|
②口口口 |④---⑤-|
③④口⑦ |⑥-----|
口口⑦口 |⑦-----|
30
①口口⑥ |①-----|
③⑤④① |②-----|
口口②口 |③---④-|
口③口口 |⑤---⑥-|
31
口①③口 |①-----|
口④④口 |②-----|
①②③② |③-----|
③口口口 |④-----|
32
①口⑦① |①---②-|
⑤⑥口④ |③-----|
②③口口 |④---⑤-|
口口④口 |⑥---⑦-|
33
口②口口 |①-----|
口口②口 |②-----|
口④④① |③-----|
③①口③ |④-----|
34
①口②② |①-----|
③⑤④⑥ |②-----|
口口口① |③---④-|
口口③口 |⑤---⑥-|
35
口①③口 |①-----|
口④④口 |②-----|
①②③② |③-----|
③口口口 |④-----|
36
①⑤<① |①-----|
②⑤<② |②-----|
口③④⑤ |③---④-|
③口口④ |----⑤-|
37
口②④① |----①-|
⑤②口③ |②---③-|
口口⑥口 |④---⑤-|
口口口口 |--⑥---|
38
①⑤⑤⑥ |①-----|
口口②∧ |②---③-|
①口口④ |④---⑤-|
口③口口 |----⑥-|
39
口口口② |----①-|
③口③口 |②-----|
①④②口 |③-----|
口③口口 |④-----|
40
①①口③ |①-----|
⑥①口口 |②-----|
口口②⑤ |③---④-|
⑥④②② |⑤---⑥-|
41
口①口③ |----①-|
口口②口 |②-----|
④口④口 |③-----|
口口②口 |④-----|
42
①口③⑤ |①-----|
口②口∧ |②-----|
口④>⑤ |③---④-|
口口口口 |----⑤-|
43
口①口口 |①-----|
③③③< |②-----|
②口口口 |③-----|
口口口口

口口口④
口口④口
口口口④
④④口口 |④-----|
44
①②口口 |①-----|
口口④③ |②-----|
口①②口 |③-----|
口④③口 |④-----|
45
口④④口 |①---②-|
①口口⑤ |③---④-|
①③⑤② |----⑤-|
口口口口 |------|
46
①口口① |①---②-|
⑤②⑥口 |③---④-|
口口口口 |⑤---⑥-|
③⑧④⑦ |⑦---⑧-|
47
>②②< |①-----|
口口口① |------|
>②②< |②-----|
口口口口 |------|
48
口①①口 |①-----|
①②③④ |②-----|
口①①口 |③-----|
口口口口 |④-----|
49
口①④口 |①-----|
口③口④ |②-----|
①②口② |③-----|
口口③口 |④-----|
50
口③口② |①-----|
口口口口 |②-----|
①③①口 |③-----|
口口口④ |④-----|
51
③口口② |①-----|
①①①① |②-----|
⑤③②口 |③-----|
口口④④ |④---⑤-|
52
口①①④ |①---②-|
⑥③口⑥ |③---④-|
口口⑤② |⑤-----|
口口口口 |⑥-----|
53
∨∨∨口 |①-----|
┃┃┃口 |------|
┃┃┃口
①①①口

口口口③
口④⑤口
口口口③ |②---③-|
②②②口 |④---⑤-|
54
①①⑤口 |①-----|
③口口⑤ |②-----|
口②②口 |③---④-|
口④口口 |----⑤-|
55
⑤③口③ |----①-|
口口②口 |②-----|
①④口④ |③-----|
口口口口 |④---⑤-|
56
口⑦口口 |①---②-|
⑥③⑥① |③---④-|
口⑦⑤口 |⑤-----|
口④口② |⑥---⑦-|
57
口口①① |------|
口④④① |①-----|
②口口⑤ |②---③-|
口口③口 |④---⑤-|
58
②③②口 |①-----|
⑥⑦⑥口 |②---③-|
④⑤④口 |④---⑤-|
口①口口 |⑥---⑦-|
59
口④④① |①-----|
口口⑥① |②---③-|
⑤口口口 |----④-|
②口③口 |⑤---⑥-|
60
口口口④ |①---②-|
①①口④ |③---④-|
口⑤口② |⑤---⑥-|
口③⑥⑥
61
口⑦<口
口口口口
⑦<口口
口口口口 |----⑦-|
62
口③③口 |----①-|
④口⑥③ |②-----|
③口②① |③---④-|
口⑤口口 |⑤---⑥-|
63
①口③口 |①-----|
口①⑤⑤ |②-----|
口④口② |③---④-|
口口②口 |----⑤-|
64
⑥③④③ |----①-|
①口口口 |②-----|
⑤⑤口口 |③---④-|
口②口口 |⑤---⑥-|
65
口口口∨ |①-----|
口口口①
口口口①
口口口∧

口④口口
③③口② |②---③-|
口⑤⑤② |----④-|
口②口口 |⑤-----|
66
口口口① |①-----|
⑤③⑤口 |②-----|
口口口口 |③---④-|
②口④口 |----⑤-|
67
口②③② |①-----|
口⑥⑦⑥ |②---③-|
①④⑤④ |④---⑤-|
口口口口 |⑥---⑦-|
68
口③口口 |①---②-|
⑦口口口 |③---④-|
④口⑥⑤ |----⑤-|
口①②① |⑥---⑦-|
69
③③①① |①-----|
口口④① |②-----|
口②口口 |③-----|
口②②④ |④-----|
70
口口口⑤ |①-----|
③①口口 |②-----|
口口⑥② |③---④-|
①④口口 |⑤---⑥-|
71
①①口口 |①-----|
口③②② |②-----|
③⑤⑤④ |③---④-|
口口④口 |----⑤-|
72
口③①口 |----①-|
②┃口口 |②-----|
口┃口口 |③-----|
口∧口③ |------|
73
①口口口 |①-----|
┃口④① |②-----|
∧口②口 |③-----|
口③口⑤ |④---⑤-|
74
②②口② |------|
口口口口 |①-----|
口>③① |②-----|
口口①口 |③--|

口口口口
口口口口
口口④口
口口口口 |-④-|
75
口口口口 |①--|
口口①口
口口∧口
口口口口

口口口口
口口②口 |-②-|
口口口口
口口口口

口口口口
口③<口 |③--|
口口口口
口口口口

口口口口
口④口口 |-④-|
口口口口
口口口口

口口口口
口∨口口
口⑤口口 |⑤--|
口口口口

口口⑦⑦
口口口⑦
⑧⑥口口 |-⑥-|
⑧⑧口口 |⑦---⑧-|
76
④口口口 |①-----|
口③⑤⑤ |②-----|
口口②口 |③-----|
口口口① |④---⑤-|
77
口口口口 |①-----|
②口口口 |②-----|
③口⑤⑤ |③-----|
④①①口 |④---⑤-|
78
口①①口 |①-----|
口口口口 |②-----|
口口口口 |③-----|
口②③④ |④-----|
79
口①口③ |①-----|
①口口口 |②---③-|
口口②口
口口口口

口∨∨口
口⑤⑤口
④口口口 |----④-|
口口口口 |⑤-----|
80
③<>③ |①-----|
②②②② |②-----|
口口口口 |③-----|
口①①口 |------|
81
①③口① |①-----|
⑤口⑥② |②---③-|
①⑦④① |④---⑤-|
∧口口∧ |⑥---⑦-|
82
④口④② |①---②-|
口③口⑤ |③-----|
①口⑤① |④-----|
口口口口 |⑤-----|
83
口②口口 |①-----|
⑤⑤④口 |②---③-|
③口口口 |④-----|
①①⑥⑥ |⑤---⑥-|
84
口③③口 |----①-|
口口口① |②-----|
④②口④ |③-----|
口口口口 |④-----|
85
④口④② |①-----|
①⑤①口 |②---③-|
口口③口 |④-----|
⑥口口口 |⑤---⑥-|
86
口⑤⑤③ |①---②-|
口口③① |③---④-|
④⑥⑥① |⑤-----|
口②口口 |⑥-----|
87
口⑥口口 |①-----|
①②③口 |②-----|
口口口⑤ |③---④-|
④口口口 |⑤---⑥-|
88
口口口⑥ |①-----|
②④⑥② |②-----|
⑤口③口 |③-④-⑤-|
口①①口 |⑥-----|
89
①③①口 |①-----|
③⑤口④ |②-----|
口②④口 |③---④-|
口⑤口口 |----⑤-|
90
④口④口 |----①-|
口口②口 |②-----|
①③口口 |③-----|
口口②口 |④-----|
91
口口口口 |①-----|
②②③③ |②-----|
④④①① |③-----|
口口口口 |④-----|
92
口口口口 |①--|
口口口口
口口口口
口>━①

口口口③
口口口┃ |-②-|
口口口∧ |③--|
口口口②

⑤━<④
口④口口 |-④-|
口口⑤口 |⑤--|
口口口口

⑥口口口
∨口口口
┃口口口 |-⑥-|
⑦口口口 |⑦--|

口口口口
口口口口
口口口口
⑧口口口 |-⑧-|
93
⑤口④口 |①-----|
①④①口 |②-----|
⑤口口③ |③---④-|
口②③口 |----⑤-|
94
口②口口 |----①-|
口口③① |②-----|
口②口口 |③-----|
口④口④ |④-----|
95
⑤口③⑤ |①-----|
②②口③ |②-----|
口④①① |③---④-|
④口口口 |----⑤-|
96
口口口口 |------|
①①①① |------|
②②②② |①---②-|
∧∧∧∧ |------|
97
口口口口 |------|
口口口口 |------|
口口口口 |------|
口口口口 |------|
98
口口口口 |------|
口口口口 |------|
口口口口 |------|
口口口口 |------|
99
口口口口 |①-----|
口口口口 |------|
①①①① |------|
口口口口 |------|
最終更新:2019年11月29日 17:26