アットウィキロゴ
Beyond the BLUE
Asato × sak × 田島千種

EXTREME

Level: 10.4
BPM: 132
Notes(hold): 791(99)

1
口口口口 |----|
口口口口 |----|
口口口口 |----|
口口口口
2
④②④口 |①--②|
口⑤③口 |③-④-|
①⑥口① |⑤-⑥-|
口口口口
3
口口口口 |①---|
③口②口 |②-③-|
③⑤②口 |--④⑤|
①口④①
4
口④②④ |①--②|
口③⑤① |③-④-|
口口⑥① |⑤-⑥-|
口口口口
5
口口口口 |①---|
③口口③ |②-③-|
口②口口 |----|
①口口①
6
>━━① |①--②|
④②④口 |③-④-|
①⑤③口 |⑤-⑥-|
口⑥口口
7
①口口口 |①---|
口⑤④口 |②-③-|
③口②口 |--④⑤|
③口②口
8
口口口口 |①---|
①口口口 |--②-|
口>━① |----|
②②口口
9
①口口口 |①---|
口>①口 |--②-|
①口口口 |----|
口口口口

口②口②
口②②口
口②口②
口口口口
10
①④①口 |①--②|
┃口⑤口 |③-④-|
∧口②⑥ |⑤-⑥-|
口③口口
11
①∨口① |①---|
口┃口口 |②-③-|
口①口口 |--④⑤|
口口口口

口口②④
口口口⑤
口口③口
口口口口
12
口口口口 |①--②|
①━<口 |③-④-|
口①口① |⑤-⑥-|
口口口口

口∨口口
④④④⑥
口口③口
口②口⑤
13
口口口① |①---|
口①口口 |②-③-|
>①口口 |----|
口口口口

③口③口
∧口口口
口③口②
口口口口
14
①口口口 |①--②|
口①━< |③-④-|
口口口口 |⑤-⑥-|
口口①口

口④口口
口⑥⑤②
口口③⑥
口口口口
15
∨口口① |①---|
┃口口口 |②-③-|
①口口口 |--④⑤|
口口口口

口②口口
口口⑤④
③∨③口
口③口口
16
口口口口 |①---|
>①口口 |--②-|
口口口口 |③-④-|
口①口口

口③口口
口②④口
口口口口
口口②②
17
口口①口 |①---|
口口口口 |--②-|
口①<口 |----|
口口口口

②口口②
口口口┃
口②口∧
口口口口
18
口口口① |①---|
②①①口 |--②-|
口③口口 |③-④-|
口口④口
19
口>①口 |①---|
口口口① |②③④-|
口口口∧ |----|
口口口口

口口②口
②③④②
口口┃口
口口∧口
20
口口口口 |①---|
∨口①口 |②③④-|
①口口口 |⑤-⑥-|
口①<口

口∨⑥口
口┃⑤
②④③②
口②口口
21
口>━① |①--②|
口口口口 |③④⑤-|
口①口口 |⑥-⑦⑧|
口口口口

②⑦⑧③
③④⑤口
⑥口┃口
口口∧口
22
口口口口 |①---|
口口①② |--②-|
口①③口 |③-④-|
口④口口
23
①<口口 |①---|
∨口口口 |②③④-|
①口口口 |--⑤⑥|
口口口口

②∨口口
口④③②
②口口口
口口口口

口口口口
口⑤口口
口口⑥⑤
口口口口
24
口口口口 |①---|
口口口口 |--②-|
口①口口 |③-④-|
口∧口口

口④②③
④口③②
口②口口
口口口口
25
①口口口 |①---|
口①口② |②③④⑤|
②④口∨ |⑥⑦⑧-|
③⑤口④

口口口口
口⑧口口
口口⑥口
口口⑦口
26
④①①口 |①-②-|
②⑤口④ |③-④-|
③⑥口⑤ |⑤-⑥-|
口口⑥①
27
口①口① |①-②-|
②口口∧ |③④⑤-|
口口口口 |⑥-⑦-|
口口口口

口口口③
口口④口
③口③口
口口口口

⑤口⑤<
口⑥口口
口⑦口口
口口口口
28
口①①口 |①-②-|
②口口∨ |③④⑤-|
口口口① |⑥-⑦-|
口口口口

⑤口口口
口⑥③口
③⑦④③
口>⑤口
29
口①②口 |①--②|
①③④② |--③-|
③⑥口④ |-④⑤⑥|
⑤口①口
30
∨口口① |①-②-|
①口口② |③-④-|
口口口口 |⑤-⑥-|
口口口口

口③④口
③④⑤口
口┃③⑥
口∧口口
31
口口⑤① |①-②-|
③①⑥② |③④⑤-|
④⑦③⑦ |⑥-⑦-|
⑤口⑥口
32
①①⑤① |①-②-|
③口⑥② |③④⑤-|
④口③⑦ |⑥-⑦-|
⑤口⑥口
33
⑤⑦⑤① |①-②③|
③①⑥② |④-⑤-|
⑥④④⑦ |⑥-⑦-|
口口口口
34
口口⑥口 |①-②-|
③④口② |③④⑤-|
>⑤⑦口 |⑥-⑦-|
口①①口
35
口②④② |①-②-|
口④③① |③-④-|
口④口① |----|
口口口口
36
∨口口∨ |①---|
①口口② |--②-|
口口口口 |----|
口口口口
37
口∨∨口 |①---|
①①②② |②---|
口口口口 |③---|
口口口口

口口口口
∨③口口
③口口口
口口口口
38
口口口口 |①---|
口∨①∨ |②---|
②②口① |③-④-|
口口口口

口口口口
口口∨口
口③③③
口口口口

口口口口
口口口口
口口④口
口口口口
39
∨∨∨∨ |①---|
①①①① |--②-|
口口口口 |--③④|
口口口口

口口口口
②②②②
口④口口
③口口口
40
口口口口 |①---|
口口∨口 |--②-|
口口┃口 |--③④|
口口①口

口口口口
③口口口
③④口口
口④②口
41
口②口② |①---|
口③①③ |--②-|
口口①口 |③-④-|
④口④口
42
∨④①⑥ |①--②|
①口⑤口 |③-④-|
口①③② |⑤-⑥-|
口∧口口
43
口④①口 |①--②|
③③⑤③ |③-④-|
口③口⑥ |⑤-⑥-|
口口②②
44
①<①口 |①-②-|
口口口口 |③④⑤-|
口口口口 |⑥-⑦-|
口口②口

③③口⑥
口④⑥③
口⑤⑦口
口口口⑦
45
口口口口 |①-②-|
口口口口 |③④⑤-|
口口口口 |⑥-⑦-|
>①口口

口⑤>⑤
③∧口∨
④⑤<⑤
口②②口

口口口口
口⑥⑦口
口口口口
口口口口
46
口①口① |①-②-|
②口口① |③-④-|
③①③① |⑤-⑥-|
②口口口

⑤口④口
口口⑤口
口⑥口⑥
口口④口
47
口②口① |①-②-|
口口口③ |③-④-|
②口②口 |⑤-⑥-|
口③口①

口口口口
④④口口
∧∧口口
口口口口

口口口口
⑥⑥口口
口口口⑥
口口⑤口
48
口①>① |①-②-|
口口口口 |③④⑤-|
②口口口 |⑥-⑦-|
口口口口

口口③③
⑥⑥④口
口口⑤⑦
口⑦口口
49
①<口口 |①-②-|
∨口口口 |③④⑤-|
①口口口 |⑥-⑦-|
口口②口

③∨口口
口⑤④③
③口口口
口口口口

口口⑥⑥
口⑥口口
口口⑦⑦
口口口口
50
口①━< |①-②-|
口口口口 |③④⑤-|
口口口口 |⑥-⑦-|
口口口②

口③口口
口口③口
口④口口
>━⑤口

⑦口口口
口⑦口口
口口口口
⑥口⑥口
51
口口口∨ |①-②-|
②口∨① |③-④-|
口口①口 |⑤-⑥-|
口③口口

口④④口
口口口④
⑤⑥④口
口口口口
52
①口口① |①--②|
口②口口 |③-④-|
口口口口 |⑤-⑥-|
>③③<

口口口⑥
口口口④
口口⑤口
口口口口
53
口④④口 |①-②-|
①口②口 |③-④-|
口口口③ |----|
口④④口
54
①口口① |①--②③④|
口口口口 |⑤⑥⑦⑧⑨⑩|
口口口口 |⑪⑫⑬⑭|
口口口口

⑬口⑫口
②③④⑤
⑥⑦⑧⑨
⑩⑪⑭口
55
口①口② |①②-③|
①③②④ |④--⑤⑥⑦|
口口口口 |⑧⑨⑩⑪⑫-|
口口口口

口口口口
口口⑫口
⑥⑤口⑪
⑦⑧⑨⑩
56
口①口① |①--②③④|
口口口口 |⑤⑥⑦⑧⑨⑩|
口口口口 |⑪⑫-⑬--|
口口口口

②口④⑬
⑫③口⑤
⑧⑦⑥口
⑨⑩⑪口
57
①①③口 |①②-③|
口口②口 |④--⑤⑥⑦|
口④口② |⑧-⑨-⑩-⑪--⑫--|
口口口口

⑪口口口
⑩口口口
⑨口⑫口
⑧⑦⑥⑤
58
口①②① |①②--|
口口②口 |③④⑤⑥⑦⑧|
口口口口 |⑨⑩⑪⑫|
口口口口

⑩口口⑫
口⑨口③
口⑧⑪④
口⑦⑥⑤
59
口①②⑩ |①②--|
③口⑨口 |③④⑤⑥⑦⑧|
④⑪⑧口 |⑨⑩⑪-|
⑤⑥⑦口
60
口口①口 |①-②--③|
口②口② |--④⑤-⑥|
口口口① |--⑦--⑧|
口>━③

口⑤口口
⑥口⑥口
⑤口口口
⑦━<④

口口口口
口口口口
口口口口
⑧口口口
61
⑨⑩①② |①②③④⑤⑥|
⑧口⑫③ |⑦⑧⑨⑩--|
⑦⑥⑤④ |⑪-⑫-|
口⑪⑫⑪
62
口>①∨ |①---|
口口口① |②③④-|
口口口口 |⑤-⑥-|
口口口口

口⑥②④
⑤口⑤②
②③④口
口口口口
63
口口口口 |①-②-|
口口口口 |③④⑤-|
口口口口 |⑥-⑦-|
>①①<

⑤>⑤口
∧口∨③
⑤<⑤④
口②②口

口口口口
口⑦⑥口
口口口口
口口口口
64
①口①口 |①-②-|
①口口② |③-④-|
①③①③ |⑤-⑥-|
口口口②

口④口⑤
口⑤口口
⑥口⑥口
口④口口
65
①口②口 |①-②-|
③口口口 |③-④-|
口②口② |⑤-⑥-|
①口③口

口④<口
口④口口
口∧口口
口口口口

口⑥口口
口⑥⑤口
口口口口
口口口⑥
66
>━①口 |①-②-|
口口口口 |③④⑤⑥⑦⑧|
口口口口 |⑨-⑩-|
②口口口

口口③③
口⑨⑥④
⑨口⑦⑤
口⑩⑧口
67
口①━< |①-②-|
口口口口 |③④⑤⑥⑦⑧|
口口口口 |⑨-⑩-|
口口口②

③③口口
④⑥⑨口
⑤⑦口⑨
口⑧⑩口
68
>━①口 |①-②-|
口口口口 |③④⑤⑥⑦⑧|
口口口口 |⑨-⑩-|
②口口口

口口③③
口⑨⑥④
⑨口⑦⑤
口⑩⑧口
69
①①口口 |①-②-|
┃┃口② |③-④-|
∧∧口口 |⑤-⑥-|
口口口口

③③④⑤
口⑥口口
口③⑤④
⑥口口口
70
口口口口 |①--②|
①口①口 |③-④-|
口③口口 |⑤-⑥-|
口口②②

④口④④
口口∧∧
⑤口⑥口
口口口口
71
⑤口④④ |①-②-|
⑥②④口 |③-④-|
口④口口 |⑤-⑥-|
①口③口
72
口口口② |①---|
口①口③ |----|
①口①口 |②-③-|
口口口口
73
口口口口 |①---|
口口①口 |--②-|
口①口① |----|
口②②口
74
②口口② |①---|
④①①③ |②-③-|
口口⑤口 |④-⑤-|
③<>③
75
口口口口 |①---|
口③口② |②-③-|
口①口口 |④-⑤⑥|
口口口口

口口口口
口口口口
⑤⑥口口
④口④④
76
口口口口 |①--②|
①━<口 |③-④-|
口口③① |⑤-⑥-|
口②口口

口∨口口
④④④⑥
口口口口
口口口⑤
77
口口口① |①---|
口①口口 |②-③-|
>①口口 |④-⑤-|
口口口口

③口③口
∧口④口
口③口②
口口口⑤
78
①口口① |①--②|
口①━< |③-④-|
口口口口 |⑤-⑥-|
口口口口

口④口口
口⑥⑤②
口口③⑥
口口口口
79
∨口口① |①---|
┃口口口 |②-③-|
①口口口 |④-⑤-|
口口口口

口②口口
口口③③
③口口口
口⑤口④
80
④③②① |①②③④⑤⑥|
⑤⑥⑦⑧ |⑦⑧⑨⑩⑪⑫|
⑫⑪⑩⑨ |⑬⑭⑮⑯--|
⑬⑭⑮⑯
81
⑦③②⑧ |①②-③|
①⑦⑧⑤ |④-⑤⑥|
⑨⑥④⑩ |⑦⑧⑨⑩|
口口口口
82
口口②口 |①--②|
①④口口 |--③-|
┃口口口 |-④--|
∧口③口
83
口口口口 |①--②|
口口口① |--③-|
口④③┃ |-④--|
口②口∧
84
口∨∨口 |①---|
口①①口 |----|
口口口口 |----|
口口口口
85
口口口口 |----|
口口口口 |----|
口口口口 |----|
口口口口
86
口口口口 |①---|
①①①① |----|
口①①口 |----|
口口口口
最終更新:2020年12月05日 16:29