アットウィキロゴ
サヨナラ・ヘヴン [ 2 ]
猫叉Master

EXTREME

Level: 10.4
BPM: 111
Notes(hold): 911(93)

1
口口口口 |----|
口②口口 |----|
①口口口 |----|
口口①口 |①-②-|
2
①口③口 |①-②③|
口口口口 |④-⑤⑥⑦---|
∧⑦⑥⑤ |⑧-⑨⑩|
口④口口 |⑪-⑫⑬⑭---|

②⑩口⑧
⑫⑬⑭口
口口口∧
口口⑪口

口口口⑨
口口口口
口口口口
口口口口
3
V④口⑤ |①-②③|
口口口⑥ |④-⑤⑥⑦---|
①口③⑦ |⑧---|
口口口口 |⑨-⑩-|

⑧口⑧口
口口口口
②⑧口口
口口口口

口口口⑩
口⑩⑩口
⑨口口口
口口⑨口
4
①⑩③口 |①-②③|
口⑧⑧口 |④-⑤⑥⑦---|
∧⑦⑥⑤ |⑧-⑨-|
⑨⑩口⑨ |⑩-⑪-|

②口口⑪
⑪口口口
④⑪口⑪
口口口口
5
口口①⑥ |①-②-|
⑤②口口 |③-④-|
口⑤③口 |⑤-⑥⑦|
口④口口 |⑧⑨⑩⑪|

口口⑦口
口⑩口⑪
⑧口口口
口口口⑨
6
①口③⑧ |①-②③|
口口口口 |④-⑤⑥⑦---|
∧⑥⑤∧ |⑧-⑨⑩|
口④口口 |⑪-⑫⑬⑭---|

②⑩口⑨
⑫⑬⑭口
⑦口口口
口口⑪口
7
V④⑨⑨ |①-②③|
口口⑧口 |④-⑤⑥⑦---|
①⑧③口 |⑧-⑨-|
口⑦⑥⑤ |⑩-⑪-|

口口口口
口口口口
②口口口
口口口口

口口口口
口⑪口口
⑩口⑩⑩
口口口口
8
①口③口 |①-②③|
口⑧⑧口 |④-⑤⑥⑦---|
∧⑦⑥⑤ |⑧-⑨⑩|
⑨④口⑨ |⑪-⑫-|

②⑪⑪口
⑩口口⑩
口口口口
口⑫⑫口
9
①<④④ |①-②③|
口⑥②⑦ |④-⑤-|
①⑧③ |⑥-⑦⑧|
口口⑤⑤ |⑨-⑩-|

⑨⑨⑨⑨
口∧口口
口⑨口口
口⑩⑩口
10
口①口口 |①-②③|
①④④② |④-⑤-|
∧口③口 |⑥---⑦-⑧⑨|
口口⑤⑤ |⑩---⑪-⑫⑬|

口⑥<口
⑥口口⑦
⑩⑨⑧
口口口口

口⑩⑪口
口⑬⑫口
口口口口
口口口口
11
口口口口 |①-②③|
①口口④ |④-⑤-|
口①⑤④ |⑥-⑦⑧|
∧⑤③② |⑨-⑩-|

⑨口<⑩
⑥⑨⑥⑩
⑦⑧口口
口口∧口

口口口口
口口⑨口
口口口口
口口口口
12
①⑤②⑤ |①-②-|
⑦口④⑥ |③-④-|
⑧③⑥④ |⑤---⑥-⑦⑧|
③口①① |⑨-⑩-|

口口口口
口口⑩口
口⑩口口
⑨口口口
13
④④>① |①-②③|
口②口V |④-⑤-|
口口③① |⑥-⑦⑧|
⑤⑤口口 |⑨-⑩-|

⑨⑨口⑥
口⑦⑥<
⑧>⑨⑥
口⑩⑩口

口口口口
口口⑨口
口口口口
口口口口
14
口>⑥口 |①-②③|
②④④① |④-⑤-|
口③①∧ |⑥---⑦-⑧⑨|
⑤⑤口口 |⑩---⑪-⑫⑬|

口⑪⑩口
⑦⑫⑬⑥
⑧⑨⑩<
口口口口
15
口口口口 |①-②③|
④口口① |④-⑤-|
④⑤①口 |⑥-⑦⑧|
②③⑤∧ |⑨-⑩-|

⑩>口⑨
⑩⑥⑨⑥
口口⑧⑦
口∧口口

口口口口
口⑨口口
口口口口
口口口口
16
口②口① |①-②-|
④⑤⑤③ |③---④-⑤⑥|
口⑥⑥口 |⑦--⑧|
①①口③ |⑨-⑩⑪|

⑧⑩口⑧
口口⑪口
⑨口口⑨
口⑦⑦口
17
⑤口③③ |①--②|
⑥口⑦口 |--③-|
口①口⑥ |④-⑤-|
口④④② |⑥-⑦-|
18
④①④③ |①-②-|
口②口口 |③-④-|
①口③口 |⑤-----⑥⑦|
口口②口 |⑧-⑨-|

口口口口
口⑤口
⑤口口口
口口口口

口⑥口口
口⑦⑧口
口⑧⑨⑨
口口口口
19
②⑤①① |①-②-|
③口⑤④ |③-④-|
口口⑥口 |⑤--⑥|
⑥口口④ |--⑦-|

口口口口
口口口⑦
口口口口
口口⑦口
20
口②>④ |①--②|
⑥⑦①口 |--③-|
①口②⑤ |④---⑤-⑥⑦|
③③口口 |⑧-⑨⑩|

口口口⑧
口口⑧口
⑨口口口
口⑩口口
21
③③口⑤ |①--②|
口⑦口⑥ |--③-|
⑥口①口 |④-⑤-|
②④④口 |⑥-⑦-|
22
③④①④ |①-②-|
口口②口 |③-④-|
口③口① |⑤-----⑥⑦|
口②口口 |⑧-⑨-|

口口口口
口⑤口<
口口口⑤
口口口口

口口⑥口
口⑧⑦口
⑨⑨⑧口
口口口口
23
①①⑤② |①-②-|
④⑤口③ |③-④-|
口⑥口口 |⑤--⑥|
④口口⑥ |--⑦-|

口口口口
⑦口口口
口口口口
口⑦口口
24
④口②④ |①--②|
口①口口 |--③-|
口②口① |④--⑤|
口③③口 |⑥--⑦⑧⑨|

口口口口
⑦口口口
⑤⑧⑨⑤
⑥口口⑥
25
②①③口 |①--②|
口口②① |--③-|
口口口③ |④-⑤-|
④口口< |⑥-⑦⑧|

口⑥口⑤
⑦⑥口⑤
口⑧口口
⑥口口口
26
口③口② |①--②|
口口口口 |--③-|
③口口② |④-⑤-|
口口①口 |⑥-⑦⑧|

⑤口⑥口
⑤口⑥⑦
口口⑧口
口口④

口口口口
口口口口
口口口口
口口口⑥
27
②口③③ |①--②|
⑤⑥⑦③ |--③-|
②④口口 |④-----⑤⑥|
④①④口 |⑦-⑧-|

⑧口口口
口口口口
⑧口口口
口口口口
28
口>口① |①---|
口②口< |②---|
口>口③ |③-④-|
口口口口 |⑤--⑥⑦⑧|

⑤口口④
口④④⑥
口⑧⑦④
口⑤口口
29
口口①口 |①--②|
①②③口 |--③-|
③口口② |④-⑤-|
口口口口 |⑥-⑦⑧|

⑥口口⑤
⑥口口⑤
口⑧口V
⑦>④④

口口口口
口口口口
口口口口
口口⑥⑥
30
口③③口 |①--②|
口②①口 |--③-|
②口口① |④-⑤-|
口口口口 |⑥-⑦⑧|

⑤口口⑥
⑤⑦口⑥
V口⑧口
④④<口

口口口口
口口口口
口口口口
⑥⑥口口
31
②>④V |①--②|
口③③④ |--③-|
②口口口 |④-----⑤⑥|
口口口① |⑦-⑧-|

口口⑦口
⑤口口⑦
⑥⑧⑧口
⑦口口口
32
①口口< |①-②③|
口口②⑤ |④-⑤-|
口⑥口③ |⑥--⑦|
口口④口 |⑧-⑨-|

⑧口⑦⑧
口口口口
口口口⑨
口口口口
33
⑤⑦⑥④ |①-②-③-|
口②③① |④-⑤-⑥-|
⑤⑦⑥口 |⑦--⑧|
④②③① |⑨-⑩-|

口口口⑧
口⑩⑩口
口口口口
口⑨⑨口
34
①口口③ |①-②③|
口口口口 |④-⑤⑥⑦---|
∧>口① |⑧-⑨⑩|
口口口口 |⑪-⑫⑬⑭---|

口口口口
口口口口
口④口②
⑤⑥⑦口

⑪⑪⑩口
口∧口⑫
口⑧⑬
口口口⑭

口口口口
口口口口
口口⑨口
口口口口
35
口①⑤④ |①-②③|
V③⑥口 |④-⑤⑥⑦---|
①口⑦口 |⑧--⑨|
口①口 |⑩-⑪-|

口口口口
口口口口
④口口口
口口②口

口口口口
⑧⑪⑪⑧
口口口口
∧⑩⑩∧

口口口口
⑨口口⑨
口口口口
口口口口
36
①口口③ |①-②③|
口口口口 |④-⑤⑥⑦---|
∧>口① |⑧-⑨⑩|
口口口口 |⑪-⑫-|

⑧⑧⑧口
口⑪⑪⑨
口④⑩②
⑤⑥⑦口

口口口口
口口口口
口口口口
⑫口口⑫
37
②④③① |①-②-|
⑥⑥⑤⑤ |③-④-|
④③④③ |⑤-⑥-|
口②①口 |⑦-⑧-|

口口口口
口口口口
口口口口
⑧⑧⑦⑦
38
③口口① |①-②③|
口口口口 |④-⑤⑥⑦---|
①口<∧ |⑧-⑨⑩|
口口口口 |⑪-⑫⑬⑭---|

口口口口
口口口口
②口④口
口⑦⑥⑤

口⑩⑪⑪
⑫口∧口
⑬⑧口<
⑭口口口

口口口口
口口口口
口⑨口口
口口口口
39
④⑤①口 |①-②③|
口⑥③V |④-⑤⑥⑦---|
口⑦口① |⑧--⑨|
口①口< |⑩-⑪-|

口口口口
口口口口
口口口④
口②口口

口口口口
⑧⑪⑪⑧
口口口口
∧⑩⑩∧

口口口口
⑨口口⑨
口口口口
口口口口
40
③口口① |①-②③|
口口口口 |④-⑤⑥⑦---|
①口<∧ |⑧-⑨⑩|
口口口口 |⑪-⑫-|

口⑧⑧⑧
⑨⑪⑪口
②⑩④口
口⑦⑥⑤

口口口口
口口口口
口口口口
⑫口口⑫
41
①③④② |①-②-|
⑤口口⑤ |③-④-|
③④③④ |⑤--⑥|
口①②口 |⑦-⑧-|

⑥口口⑦
口口⑦口
口口口口
口⑧⑧口
42
口口①口 |①-②③|
V口口口 |④-⑤⑥⑦---|
口口∧口 |⑧-⑨⑩|
①口口口 |⑪-⑫⑬⑭---|

口口②口
③⑤口⑤
口⑥④⑥
②⑦口⑦

⑧口<口
口口⑩口
⑪口口口
口⑧口

⑨⑫口⑫
口⑬口⑬
口⑭口⑭
口口⑨口
43
口口V口 |①-②③|
①口口口 |④-⑤⑥⑦---|
口口①口 |⑧---|
∧口口口 |⑨-⑩-|

口⑤⑥⑦
②口③口
④⑧②⑧
口⑤⑥⑦

口口口口
⑨⑨口口
口口口口
口口⑩⑩
44
口口①口 |①-②③|
口V口口 |④-⑤⑥⑦---|
口口∧口 |⑧-⑨⑩|
口①口口 |⑪⑫⑬⑭|

口⑨②⑨
⑤④⑤口
⑥⑧⑥③
⑦②⑦口

口口⑩口
口⑪⑫⑭
口口⑭⑫
⑬口口口
45
①④③② |①-②-|
⑥⑥⑤⑤ |③-④-|
口口口口 |⑤-⑥-|
④①②③ |⑦-⑧-|

口口口口
口口口口
⑧口口⑦
口⑧⑦口
46
①<①① |①-②③|
④⑤③口 |④-⑤⑥⑦---|
口⑥⑦⑦ |⑧-⑨⑩|
口⑦口③ |⑪-⑫⑬⑭---|

②口口口
口口口口
口口口口
口口口口

⑧⑧⑧
口口口⑩
口口口口
⑪口⑩口

⑫⑨口口
⑬口口口
⑭口⑭⑭
口口口口
47
口V①① |①-②③|
口①③口 |④-⑤⑥⑦---|
口口口口 |⑧⑨⑩⑪|
口口口③ |⑫-⑬-|

口④⑩⑧
口②口口
⑪⑨⑦⑦
⑦⑥⑤口

⑫⑫口口
口⑫口口
口口口⑬
口口⑬⑬
48
⑤口>① |①-②③|
⑥⑧④口 |④-⑤⑥⑦-⑧-|
⑦③③口 |⑨-⑩⑪|
①①口口 |⑫-⑬-|

口⑨⑩②
⑬口口⑬
口口⑪口
⑫⑨⑩⑫
49
①<④④ |①-②③|
口⑥②⑦ |④-⑤-|
①⑧③ |⑥-⑦⑧|
口口⑤⑤ |⑨-⑩-|

⑨⑨⑨⑨
口∧口口
口⑨口口
口⑩⑩口
50
口①口口 |①-②③|
①④④② |④-⑤-|
∧口③口 |⑥---⑦-⑧⑨|
口口⑤⑤ |⑩---⑪-⑫⑬|

口⑥<口
⑥口口⑦
⑩⑨⑧
口口口口

口⑩⑪口
口⑬⑫口
口口口口
口口口口
51
口口口口 |①-②③|
①口口④ |④-⑤-|
口①⑤④ |⑥-⑦⑧|
∧⑤③② |⑨-⑩-|

⑨口<⑩
⑥⑨⑥⑩
⑦⑧口口
口口∧口

口口口口
口口⑨口
口口口口
口口口口
52
①⑤②⑤ |①-②-|
⑦口④⑥ |③-④-|
⑧③⑥④ |⑤---⑥-⑦⑧|
③口①① |⑨-⑩-|

口口口口
口口⑩口
口⑩口口
⑨口口口
53
④④>① |①-②③|
口②口V |④-⑤-|
口口③① |⑥-⑦⑧|
⑤⑤口口 |⑨-⑩-|

⑨⑨口⑥
口⑦⑥<
⑧>⑨⑥
口⑩⑩口

口口口口
口口⑨口
口口口口
口口口口
54
口>⑥口 |①-②③|
②④④① |④-⑤-|
口③①∧ |⑥---⑦-⑧⑨|
⑤⑤口口 |⑩---⑪-⑫⑬|

口⑪⑩口
⑦⑫⑬⑥
⑧⑨⑩<
口口口口
55
口口口口 |①-②③|
④口口① |④-⑤-|
④⑤①口 |⑥-⑦⑧|
②③⑤∧ |⑨-⑩-|

⑩>口⑨
⑩⑥⑨⑥
口口⑧⑦
口∧口口

口口口口
口⑨口口
口口口口
口口口口
56
口②②① |①-②-|
⑤④④⑤ |③---④-⑤⑥|
⑥③③⑥ |⑦--⑧|
⑦①①⑦ |⑨---|

⑧口口⑧
口口口口
口⑨⑨口
口⑨⑨口
最終更新:2019年11月04日 16:25