アットウィキロゴ
True Blue [ 2 ]
dj TAKA feat.AiMEE

EXTREME

Level: 10.5
BPM: 164
Notes(hold): 908(59)

1
口口口口 |----|
口口口口 |----|
口口口口 |----|
口口口口 |----|
2
①口口② |①---|
口口口口 |----|
口口②口 |②---|
口口口口 |----|
3
口口③口 |①---|
①①口③ |②-③-|
口④口口 |--④-|
②②④口

口⑤口⑤
口↑口↑
口↑口↑
口口口口 |--⑤-|
4
口⑴口⑴ |----|
②←③口 |----|
②←③口 |--①-|
口口口口 |②-③-|
5
口口②口 |----|
⑴②口口 |--①-|
⑴口口③ |②---|
口口③口 |③---|
6
口口口↓ |①---|
口口①① |----|
口口↑口 |--|
口口口口

口口口口
②口⑵⑵
口③口口 |②-|
口口④口 |③-④-|
7
③①③口 |①---|
口口口口 |②---|
①④②② |③---|
口④口口 |④---|
8
口①←← |①---|
口→→① |--|
口口口口
口口口口

口⑵口口
②←←⑵ |②-|
→→②口 |----|
口口口口

口口口口
⑶③③口
口口⑶口
口④④口 |③-④-|
9
③③③口 |----|
②②口口 |①---|
①口口口 |②---|
口口口口 |③---|
10
口口口③ |①-②-|
口④①口 |③-④-|
②口③① |--⑤-|
④②口口 |⑥-⑦-|

口口⑤口
⑦口口⑦
↑⑥口↑ |--⑤-|
↑口口↑ |⑥-⑦-|
11
口口口口 |----|
⑵②①⑵ |--①②|
口口口口 |----|
口口口口 |----|
12
口④口③ |①-②-|
口口口口 |③-④-|
④②③①
②口①口

⑤口⑤口
口↓口↓
口↓口↓ |--⑤-|
口⑥口⑥ |--⑥-|
13
口③④口 |--①-|
③口①④ |②---|
口口②口 |③---|
口⑴口⑴ |④---|
14
③口口口 |①-②-|
口①④口 |③-④-|
①③口②
口口②④

口口⑤⑤
↓口口↓
⑦口口⑦ |--⑤-|
⑥⑥口口 |⑥-⑦-|
15
↓③③↓ |----|
④口口④ |--①-|
⑴②②⑴ |②---|
口口口口 |③-④-|
16
口口口口 |①-②③|
口⑤②口 |-④-⑤|
口④口口
③①①口

口口口口
口口⑩口
⑧口⑦口 |⑥-⑦⑧|
口口⑨⑥ |-⑨-⑩|
17
口口口口 |①-②③|
⑼口⑧⑼ |-④-⑤|
⑥②⑨③ |⑥-⑦-|
①④⑦⑤ |⑧-⑨-|
18
①①①④ |①-②③|
口①口口 |-④-⑤|
⑤①口②
口③口口

口口⑨口
⑦口口口
口⑩⑧口 |⑥-⑦⑧|
口口⑥口 |-⑨-⑩|
19
②⑧⑦⑤ |①-②③|
⑧⑥③⑦ |-④-⑤|
⑨口口口 |⑥-⑦-|
④⑨口① |⑧-⑨-|
20
②口口④ |①-②③|
口⑤①口 |-④-⑤|
口③①①
口口①①

口⑥⑥口
口口⑨⑦
口口⑨⑧ |⑥-⑦-|
口⑦口⑧ |⑧-⑨-|
21
①口⑤② |①-②③|
①③口口 |-④-⑤|
①口口口
①口④口

⑨⑦口口
口口⑦口
⑧⑥口口 |⑥-⑦-|
口⑧口口 |⑧-⑨-|
22
口口口① |①-②-|
③口口① |③-④-|
口口②①
④口口①

口⑤⑤⑦
口⑥⑤口
口⑤口⑧ |⑤-⑥-|
口⑤⑤口 |⑦-⑧-|
23
口⑤口口 |①②③④|
①口⑥② |⑤⑥⑦⑧|
口⑦口口
③口⑧④

⑨口⑪⑪
口⑫口口
⑩口⑬口 |⑨⑩-⑪|
口⑭口口 |-⑫⑬⑭|
24
④口口口 |----|
口⑤②口 |----|
①③⑥① |①-②③|
口口口⑦ |④⑤⑥⑦|
25
口②③⑥ |①②③④|
①口口④ |⑤--⑥|
口口口口
⑤⑤口口

⑫口⑬口
口⑨⑦口
⑩⑧⑪口 |⑦⑧⑨-|
口口⑨口 |⑩⑪⑫⑬|
26
口①口口 |①②③④|
⑤口口② |⑤--⑥|
口口口④
⑤③口⑥

⑩⑪⑫⑬
口⑦口口
⑨⑨⑧口 |⑦⑧⑨-|
口口口口 |⑩⑪⑫⑬|
27
⑬⑭⑮⑯ |①②③④|
①⑦④⑥ |⑤⑥⑦⑧|
⑨⑩⑪⑫ |⑨⑩⑪⑫|
③⑤②⑧ |⑬⑭⑮⑯|
28
口口口口 |①②③④|
①⑤③⑦ |⑤⑥⑦⑧|
口口口口
②⑥④⑧

口⑪口⑬
⑭口⑮口
⑨⑯⑫⑩ |⑨⑩⑪⑫|
口口口口 |⑬⑭⑮⑯|
29
①⑦③⑧ |①②③④|
⑪②⑬④ |⑤-⑥⑦|
⑨⑫⑩⑭ |⑧⑨⑩-|
⑤⑤⑩⑥ |⑪⑫⑬⑭|
30
⑤⑨⑥⑬ |①②③④|
⑩①⑭② |⑤⑥⑦⑧|
⑦⑪⑧⑮ |⑨⑩⑪⑫|
⑫③⑯④ |⑬⑭⑮⑯|
31
⑤⑬⑧⑫ |①②③④|
⑮①⑪④ |⑤⑥⑦⑧|
⑦⑩⑥⑯ |⑨⑩⑪⑫|
⑨③⑭② |⑬⑭⑮⑯|
32
⑧⑨④⑯ |①②③④|
⑬⑦⑩② |⑤⑥⑦⑧|
③⑪⑥⑭ |⑨⑩⑪⑫|
⑮①⑫⑤ |⑬⑭⑮⑯|
33
口口①口 |①---|
口口口① |----|
①口口口
口①口口

口口口口
口口口口
口②②← |②---|
口③口口 |③-|

口口口口
口口口口
口口⑷口
口口口口 |④-|
34
①口①② |①---|
②口⑤① |②-③-|
④⑤口③ |④-⑤-|
⑥口口口 |⑥---|
35
口①②口 |①---|
口②口口 |②-③-|
口口口③
口①①口

口口口口
口口⑤⑤
口④口口 |④-⑤-|
口⑥⑦⑦ |⑥-⑦-|
36
①④②② |①---|
②④口口 |②---|
③口③③ |③---|
④口口口 |④---|
37
④③①口 |①---|
③口②口 |②---|
④口③口 |③---|
口②④口 |④---|
38
口口口① |①---|
→①口口
口①←口
口口口口

口③口口
③⑵口② |②-③-|
口⑵口④ |④---|
⑤⑤口⑤ |⑤---|
39
①口①口 |①---|
口①②口 |②-|
②口口口
口口口口

口↓口口
口↓口口 |③-|
口③④口 |④---|
口口⑤口 |⑤---|
40
③口口⑦ |①②③④|
⑤口⑤② |⑤-⑥⑦|
①⑴口口
⑥口口④

⑭口⑧口
口⑨口⑬
⑫口⑩口 |⑧⑨⑩⑪|
口⑪口⑮ |⑫⑬⑭⑮|
41
口①口口 |①---|
①口口口 |----|
口口口①
口口①口

口口②口
③③↑口
口口↑口 |②---|
口②口口 |③---|
42
②②⑴③ |①---|
⑥⑥②③ |②-③-|
①口口① |④-⑤-|
④⑤①⑤ |⑥---|
43
②②③③ |①---|
⑥⑥⑦⑤ |②-③-|
口①②① |④-⑤-|
口④⑤⑦ |⑥-⑦-|
44
②②③口 |①---|
④④口③ |②---|
①口口② |③---|
③④④口 |④---|
45
②口②② |①---|
④口④④ |②---|
②④①口 |③---|
口③③口 |④---|
46
→①口口 |①---|
口口口口
口口口①
口口口口

口⑵②②
⑤⑤⑤⑤ |②-③-|
口口口口 |④---|
③③口④ |⑤---|
47
①↓②② |①---|
口↓⑤⑤ |②-③-|
②③①口 |④---|
口口④口 |⑤---|
48
口口②② |①---|
口⑥口⑤ |②---|
④⑵③① |③-④-|
⑥④⑤③ |⑤-⑥-|
49
①←←① |①---|
口口②口 |②-③-|
口口口口
口口口③

口口⑤口
口口口口
口④④口 |--④-|
口口口口 |--⑤-|
50
⑴②口口 |①---|
②→→① |--②-|
①口口口 |----|
口口口口 |③-④-|

口口口口 |①---|
口④口口 |--②-|
口口口口 |----|
口③③口 |③-④-|
51
→→③口 |①---|
口口口⑴ |②-③-|
①←←② |----|
口口口口 |----|
52
口①⑴① |①---|
口②口↑ |②---|
⑴口口↑
口口口口

口口↓⑶
口口↓口
口③③口 |③---|
口④口口 |④---|
53
①←←口 |①---|
口口②① |②-③-|
口口⑴口
口口口③

口口⑤口
口口口口
口口④口 |----|
口口口口 |④-⑤-|
54
⑴口口口 |①---|
①→→①
口①口口
口口口口

口③③口
口②口口 |--②-|
口口口口 |----|
②口口口 |③---|
55
口口口② |①---|
口口①⑴ |②-③-|
①←←③
口口口口

口④④口
口口口口
口⑤⑤口 |--④-|
口口口口 |--⑤-|
56
口口口口 |①---|
口口↓口
⑴口↓口
口口①口

口⑤口口
②⑦③④ |②-③-|
口⑥口↑ |④-⑤-|
口④⑷↑ |⑥-⑦-|
57
①口①口 |①---|
↑口②⑴ |②-③-|
①口①口 |--④-|
口③④④

⑸口口口
口⑤口口
口口⑤口
口口口口 |--⑤-|
58
口口口① |①-②-|
②口③↑ |--③-|
口口口口 |--④-|
④口⑤口 |--⑤-|
59
→①①⑴ |①-②-|
口④④② |③-④-|
口⑥③⑥ |--⑤-|
口口⑤⑤ |--⑥-|
60
④⑴①← |①---|
②③口口 |②---|
③口④口 |③---|
口②口口 |④---|
61
口①⑴① |①---|
①②口② |②-|
口口口口
口口口口

口口口口
↓口口口 |③-|
↓口口④ |④---|
③口口⑤ |⑤---|
62
口③⑥⑥ |①---|
口⑦⑦④ |②-③④|
⑧⑧口⑤ |⑤-⑥-|
⑴②①口 |⑦-⑧-|
63
①←←口 |①-②-|
口口口口
口口②口
口口口①

⑶③口口
④⑦⑥④ |③-④-|
⑧口口⑤ |⑤-⑥-|
→⑤⑤←

口口口口
口⑦口口
⑧口口口
口⑺⑺口 |⑦-⑧-|
64
→①①← |①---|
口口口口 |----|
口口口口
口口口口

口⑵⑵口
口口口口
→②②← |②---|
口口口口 |--|

口口口口
口口口口
口⑶⑶口
口口口口 |③-|
65
↓口口口 |①②③④|
①②⑥① |⑤-⑥⑦|
口口口⑤
⑦④口③

口口⑨⑧
口口口⑫
口⑪⑩口 |⑧⑨⑩⑪|
口口口⑬ |⑫-⑬-|
66
口口口⑦ |①②③④|
口①③口 |⑤⑥⑦⑧|
⑥口口⑤
⑧④②口

口口口口
口⑬口⑨
口⑩⑫口 |⑨⑩⑪⑫|
口口⑭⑪ |⑬-⑭-|
67
④口①⑤ |①②③④|
⑴口③⑦ |⑤-⑥⑦|
⑧⑨⑩⑪ |⑧⑨⑩⑪|
⑫②⑬⑥ |⑫-⑬-|
68
↓①口② |①-②③|
⑤④③⑤ |④-⑤⑥|
口⑦⑥⑧ |⑦-⑧⑨|
口口⑨口

口口口口
⑽口口口
口口口口
口口口⑪ |⑩-⑪-|
69
口口①⑤ |①②③④|
口②⑥③ |⑤⑥⑦⑧|
↓⑦④⑧
①口口口

口口⑬口
口⑭口⑭
⑩口口口 |⑨⑩⑪⑫|
⒀⑫⑨⑪ |⑬-⑭-|
70
↓口口② |①②③④|
①口④口 |⑤-|
口口③⑤
口口口口

⑩←⑧口
⑹口口口 |⑥-|
⑥⑨口口 |⑦-⑧-|
口⑦⑦口 |⑨-⑩-|
71
口口⑩① |①②③④|
⑬⑪⑧② |⑤-⑥⑦|
⑤⑨⑥③ |⑧⑨⑩⑪|
口⑦⑫④ |⑫-⑬-|
72
口④口① |①②③④|
口口⑦⑤ |⑤⑥⑦⑧|
②⑥口③
口口口⑧

⑽口⑨⑪
口⑨口口
口口⑩⑫ |⑨-⑩-|
口⑩口口 |⑪-⑫-|
73
口⑤⑥口 |①-②③|
①口口① |④-⑤⑥|
口③口口
②口④口

⑪口口⑧
口口⑩口
⑦口口⑭ |⑦⑧⑨⑩|
⑬⑨口⑫ |⑪⑫⑬⑭|
74
口⑤⑤口 |①②③④|
③①口口 |⑤---|
口口④口
口口②口

口口口↓
口⑦口⑧
⑥⑥口口 |⑥---|
口⑦口口 |⑦-⑧-|
75
①口口口 |①②③④|
⑥口⑦口 |⑤-⑥⑦|
口⑤口④
③口②口

⑫口口口
口口口口
⑧口⑨口 |⑧⑨⑩⑪|
⑬⑩口⑪ |⑫-⑬-|
76
口③口口 |①-②③|
②⑥④⑴ |④-⑤⑥|
⑤口口口
口口①口

口口口口
口口口口
口⑨⑦口 |⑦-⑧⑨|
⑧⑪⑩口 |⑩-⑪-|
77
①②口① |①②③④|
↑④口③
口口口口
口口口口

口口⑨口
⑧口⑦口 |⑤⑥⑦⑧|
⑥⑫⑤⑩ |⑨⑩⑪⑫|
口⑭⑪⑬ |⑬-⑭-|
78
⑴①⑥① |①②③④|
口口④↑ |⑤-⑥⑦|
⑤⑦②口
③口口口

口⑫口口
口⑨口⑩
口口口⑧ |⑧⑨⑩-|
口⑪口口 |⑪-⑫-|
79
↓口⑤⑴ |①-②③|
①口②口 |④-⑤-|
③口①口
口口④口

口口口⑫
口⑦口⑥
口⑨口⑧ |⑥⑦⑧⑨|
⑬⑪口⑩ |⑩⑪⑫⑬|
80
口口口口 |①②③④|
口⑥③⑤ |⑤⑥⑦⑧|
②⑧①⑦
口口④口

口口⑬⑪
⒁口口口
口口⑭口 |⑨⑩⑪⑫|
⑫⑩口⑨ |⑬-⑭-|
81
口①口口 |①---|
口↑→① |----|
①←↓口 |----|
口口①口 |----|
82
口口口口 |----|
口口口口 |----|
口口口口 |----|
口口口口 |----|
83
口口口口 |----|
口口口口 |----|
口口口口 |----|
口口口口 |----|
84
口⑴口口 |①---|
口口口⑴ |----|
⑴口口口 |----|
口口⑴口 |----|
最終更新:2019年11月04日 16:36