アットウィキロゴ
Catch Our Fire!
中島由貴

EXTREME

Level: 10.4
BPM: 190
Notes(hold): 1026(30)

1
口口口口 |----|
口口口口 |----|
口口口口 |----|
口口口口 |----|
2
口口口∨ |①---|
>①∨① |----|
口∨①口 |----|
口①口口

口口口口
口②口②
口口②口
口②口口 |②---|
3
⑪①⑧⑫ |①②③④|
⑤⑬②⑬ |⑤⑥⑦⑧|
⑨③口⑥ |⑨⑩⑪⑫|
⑦口④⑩ |⑬---|
4
口①口口 |①--②|
④口①⑥ |--③-|
③口②③ |--④-|
口②口⑤ |⑤-⑥-|
5
口④①口 |①--②|
④①口口 |--③-|
③②口③ |----|
口口②口 |④---|
6
⑥口④口 |①--②|
口③①① |--③-|
口⑤口口 |--④-|
②②③口 |⑤-⑥-|
7
口③口③ |①--②|
④口①口 |--③-|
②口③① |--④-|
⑤②口口 |⑤---|
8
⑬⑧⑨⑦ |①②③④|
⑭⑥⑩⑤ |⑤⑥⑦⑧|
⑮④⑪③ |⑨⑩⑪⑫|
⑯②⑫① |⑬⑭⑮⑯|
9
⑩⑥⑧④ |①-②③|
⑩③口② |-④⑤-|
口⑤⑨⑦ |⑥⑦-⑧|
口口口① |⑨-⑩-|
10
⑬⑫⑪⑩ |①---|
口口①① |②③④⑤|
⑥⑦⑧⑨ |⑥⑦⑧⑨|
②③④⑤ |⑩⑪⑫⑬|
11
口⑬⑬口 |①②③④|
④③②① |⑤⑥⑦⑧|
⑨⑩⑪⑫ |⑨⑩⑪⑫|
⑤⑥⑦⑧ |⑬---|
12
②⑥⑥① |①-②-|
②③③① |③---|
⑤口④⑥ |④-⑤-|
③⑤口④ |⑥---|
13
①口口⑤ |①--②|
④②④① |--③-|
口④③口 |④---|
②口③⑤ |⑤---|
14
∨①④口 |①--②|
┃口⑤④ |--③-|
┃口口② |④---|
③口口口 |⑤---|
15
③口口口 |①---|
口①口口 |②-③-|
口②①口
①口口口

口口口口
口⑥口④
口口口口 |④--⑤|
口口⑤口 |--⑥-|
16
口④①∨ |①--②|
④⑤口┃ |--③-|
②口口┃ |④---|
口口口③ |⑤---|
17
口口口③ |①---|
口口①口 |②-③-|
口①②口
口口口①

口口口口
④口⑥口
口口口口 |④--⑤|
口⑤口口 |--⑥-|
18
①①③口 |①--②|
口口口口 |--③-|
口口口② |--④-|
④⑤⑥口 |⑤-⑥-|
19
口①口② |①--②|
口口口口 |--③-|
③①口口
口口口口

⑥⑦口口
口④④口
口口口口 |④---|
口⑤⑤口 |⑤-⑥⑦|
20
口口口② |①-②-|
①口⑤④ |③-④⑤|
口口口⑥ |⑥-⑦-|
③⑦口口

口口⑧口
⑨⑩口口
口口口口
口口口口 |⑧-⑨⑩|
21
③⑥口⑥ |①-②-|
口⑧④⑧ |③-④⑤|
①⑤⑧口 |⑥--⑦|
口⑦⑦② |--⑧-|
22
口④①∨ |①--②|
④⑤口┃ |--③-|
②口口┃ |④---|
口口口③ |⑤---|
23
口口口③ |①---|
口口①口 |②-③-|
口①②口
口口口①

口口口口
④口⑥口
口口口口 |④--⑤|
口⑤口口 |--⑥-|
24
∨①④口 |①--②|
┃口⑤④ |--③-|
┃口口② |④---|
③口口口 |⑤---|
25
③口口口 |①---|
口①口口 |②-③-|
口②①口
①口口口

口口口口
口⑥口④
口口口口 |④--⑤|
口口⑤口 |--⑥-|
26
口③①① |①--②|
口口口口 |--③-|
②口口口 |--④-|
口⑥⑤④ |⑤-⑥-|
27
②口①口 |①--②|
口④④口 |--③-|
⑥⑦①③ |④---|
口⑤⑤口 |⑤-⑥⑦|
28
④口口② |①---|
口口口口 |②-③-|
⑤口①③ |--④-|
口口口口 |⑤---|
29
口口口口 |①-②-|
⑤③①⑤ |--③-|
口口口口 |④---|
口④②口 |⑤---|
30
①口⑥⑥ |①-②③|
口口口口 |④⑤⑥-|
⑤④③②
①口口口

⑫⑫口口
⑧⑨⑩⑪
口口口口 |⑦-⑧⑨|
口⑦口⑦ |⑩⑪⑫-|
31
口口⑥口 |①-②③|
⑧口⑨⑨ |④⑤⑥⑦|
⑤④③② |⑧--⑨|
①⑦①口

口⑩口口
口口口口
口口口口
口口⑩口 |--⑩-|
32
①口⑥⑥ |①-②③|
口口口口 |④⑤⑥-|
⑤④③②
①口口口

⑫⑫口口
⑧⑨⑩⑪
口口口口 |⑦-⑧⑨|
口⑦口⑦ |⑩⑪⑫-|
33
⑩口⑥口 |①-②③|
⑧口⑨⑨ |④⑤⑥⑦|
⑤④③② |⑧--⑨|
①⑦①⑩ |--⑩-|
34
口口口口 |①--②|
③口④④ |--③-|
口口②口 |--④-|
①⑤⑤口 |⑤---|
35
①口口口 |①---|
┃口口口
∧口口口
口口口口

②⑤④口
口口口⑥ |②-③-|
口④③④ |④---|
口口⑤口 |⑤-⑥-|
36
口⑤③口 |①--②|
⑤口①口 |--③-|
②口口④ |--④-|
口口口口 |⑤---|
37
④口④① |①--②|
口口②口 |--③-|
口③口口 |④---|
⑤口⑤口 |⑤---|
38
口①口口 |①---|
口┃口口
口∧口口
口口口口

口②口口
口口④③ |--②-|
⑥⑤口② |----|
口口口口 |③④⑤⑥|
39
口⑪①⑤ |①②③④|
⑥②口⑩ |⑤⑥⑦⑧|
口⑫③⑦ |⑨-⑩-|
⑧④⑨口 |⑪-⑫-|
40
①口①② |①--②|
④⑤②口 |--③-|
③口⑥⑦ |----|
口口口口 |④⑤⑥⑦|
41
⑤①⑪口 |①②③④|
⑩口②⑥ |⑤⑥⑦⑧|
⑦③⑫口 |⑨-⑩-|
口⑨④⑧ |⑪-⑫-|
42
口①口① |①-②-|
口②口口 |③-④-|
口④口④
口口③口

⑦口⑦⑧
口口⑤口
口口口口 |⑤-⑥-|
口⑥口口 |⑦-⑧-|
43
⑥②口⑥ |①-②-|
②口口③ |③-④-|
④口①口 |⑤---|
口⑤⑤口 |⑥---|
44
⑤①③口 |①-②-|
口口⑥口 |--③-|
口④②口 |④---|
①⑤口③ |⑤-⑥-|
45
④口口① |--①-|
④②口口 |②---|
口⑤⑥③ |③-④-|
口口①③ |--⑤⑥|
46
口①③口 |①-②-|
口口②② |③-④-|
①口口口
③口④④

⑤口口⑤
口⑥口口
⑥口口口 |--⑤-|
口⑥口口 |--⑥-|
47
口①口口 |--①-|
口口③③ |②-③-|
口口①口
口口②②

④━━<
口口口口
口口口口 |④-|
口口口口

⑤口口口
口口口口
口口口口 |⑤-|
⑥━━< |⑥-|

口口⑧口
口口口口
口⑦口口
⑦口口口 |⑦⑧|
48
口口口口 |①-|
①━━<
口口口①
口口口口

⑤②口② |②-|
②⑥口④ |③-④-|
⑥口④口 |--⑤-|
口⑥③⑤ |--⑥-|
49
口口②② |--①-|
①口①口 |②-③-|
口口③③ |④-|
④━━<

⑥━━<
口口口⑤
口口口口 |⑤-|
⑤口⑥口 |⑥-|

⑦口口口
口口口口
口口口口
口口口口 |⑦-|
50
口口口口 |①-|
口①①口
①━━<
口口口口

口⑤⑦③ |②-|
口口口口 |--③④|
②⑥④⑥ |⑤--⑥|
口⑦口口 |--⑦-|
51
口④⑥② |①---|
①口口① |--②③|
口口③口 |④--⑤|
⑤口⑤⑥ |--⑥-|
52
口口口口 |①---|
③②口③ |②-③-|
①②④① |--④-|
⑤口④⑤ |⑤---|
53
④①①⑤ |①-②-|
口口③③ |--③-|
②⑦⑥② |④---|
口④⑤口 |⑤-⑥⑦|
54
⑤③①⑤ |①-②-|
②②③⑥ |③-④-|
口口⑥① |--⑤-|
④④口⑥ |--⑥-|
55
口口①口 |--①-|
③③口口 |②-③-|
口①口口
②②口口

>━━④
口口口口
口口口口 |④-|
口口口口

口口口⑤
口口口口
口口口口 |⑤-|
>━━⑥ |⑥-|

口⑧口口
口口口口
口口⑦口
口口口⑦ |⑦⑧|
56
口口口口 |①-|
>━━①
①口口口
口口口口

②口②⑤ |②-|
④口⑥② |③-④-|
口⑥口④ |--⑤-|
⑤③⑥口 |--⑥-|
57
②②口口 |--①-|
口①口① |②-③-|
③口③口 |④-|
>━━④

>━━⑥
⑤口口口
口口口口 |⑤-|
口⑥口⑤ |⑥-|

口口口⑦
口口口口
口口口口
口口口口 |⑦-|
58
口口口口 |①-|
口①①口
>━━①
口口口口

③⑦⑤口 |②-|
口口口口 |--③④|
⑥④⑥② |⑤--⑥|
口口⑦口 |--⑦-|
59
④口④① |①--②|
③③①口 |--③-|
口⑤口⑤ |④---|
②②口口 |⑤---|
60
口①口① |①---|
③③②② |----|
①口①口 |②--③|
口④④口 |--④-|
61
①口口① |①---|
口口口口 |----|
②口口② |②---|
口口口口 |----|
62
口②④口 |①---|
①①①① |②-③-|
口③⑤口 |--④-|
②③⑤④ |⑤---|
63
①⑤⑤③ |①-②-|
⑥口口口 |--③-|
①⑦⑧③ |④---|
②⑤⑤④ |⑤⑥⑦⑧|
64
②⑨口④ |①--②|
⑦口②① |--③-|
③口口⑥ |--④⑤|
③⑤⑧口 |⑥⑦⑧⑨|
65
⑤口③口 |①②③④|
口口⑥① |⑤⑥⑦⑧|
口②④口
⑦口口⑧

口口口⑩
⑬⑨口⑭
⑬口口⑫ |⑨⑩⑪⑫|
口⑪⑭口 |⑬-⑭-|
66
②③②④ |①--②|
口⑦口⑧ |--③-|
⑤①③口 |--④⑤|
口⑨口⑥ |⑥⑦⑧⑨|
67
④⑩⑦⑨ |①②③④|
⑧⑭①⑬ |⑤⑥⑦⑧|
⑫⑥⑤⑬ |⑨⑩⑪⑫|
②⑭③⑪ |⑬-⑭-|
68
②口⑤⑦ |①②③④|
⑧口③口 |⑤⑥⑦⑧|
口⑥口口
④口①口

⑯⑩口口
口口口⑬
⑫口⑨⑮ |⑨⑩⑪⑫|
口⑭口⑪ |⑬⑭⑮⑯|
69
口⑧③⑤ |①②③④|
⑥④⑦口 |⑤⑥⑦⑧|
⑪⑩⑩⑪ |⑨-⑩-|
②口①⑨ |⑪---|
70
①⑨③⑤ |①-②③|
⑥④口② |④-⑤-|
⑨⑦⑪口 |⑥⑦⑧-|
⑧①⑤⑩ |⑨-⑩⑪|
71
⑥口②⑦ |①-②-|
口③④⑤ |③④⑤-|
口口口② |⑥---|
⑥①口⑦ |⑦---|
72
⑦⑨口口 |①②③④|
①③⑥口 |⑤-⑥⑦|
②⑥④① |⑧⑨⑩-|
口⑤⑧⑩

口口⑪⑪
⑬口口⑫
口口口⑭
口口口口 |⑪⑫⑬⑭|
73
⑦⑧⑨⑩ |①-②③|
口③④⑪ |④⑤⑥-|
①⑤⑥⑫ |⑦⑧⑨⑩|
②②⑭⑬ |⑪⑫⑬⑭|
74
⑨⑩⑪⑫ |①②③④|
④⑤⑥⑬ |⑤⑥⑦⑧|
③⑧⑦口 |⑨⑩⑪⑫|
②①口口 |⑬---|
75
口口口③ |----|
口②口口 |----|
口⑥⑦⑤ |①②③④|
口④口① |⑤-⑥⑦|
76
口①③口 |①-②-|
口口②② |③-④-|
①口口口
③口④④

⑥口口⑥
⑤⑧口口
⑧口口⑦ |⑤-⑥-|
口⑧口口 |⑦-⑧-|
77
口②口口 |①-②-|
口口④④ |③-④-|
口①②口
口口③③

⑤━━<
口口口口
口口口口 |⑤-|
口口口口

⑥口口口
口口口口
口口口口 |⑥-|
⑦━━< |⑦-|

口口⑨口
口口口口
口⑧口口
⑧口口口 |⑧⑨|
78
口口口口 |①-|
①━━<
口口口①
口口口口

⑥②口② |②-|
②⑧③④ |③-④-|
⑧⑦⑤口 |⑤-⑥-|
口⑧④⑥ |⑦-⑧-|
79
口①③③ |①-②-|
②口②口 |③-④-|
口口④④ |⑤-|
⑤━━<

⑦━━<
口口口⑥
口口口口 |⑥-|
⑥口⑦口 |⑦-|

⑧口口口
口口口口
口口口口
口口口口 |⑧-|
80
口口口口 |①-|
口①①口
①━━<
口口口口

口⑤⑦③ |②-|
口口口口 |--③④|
②⑥④⑥ |⑤--⑥|
口⑦口口 |--⑦-|
81
口③口③ |①--②|
①②④① |--③-|
④口口口 |④---|
②⑤⑤⑤ |⑤---|
82
①②①③ |①---|
②④③④ |----|
口①口口 |②--③|
②口③口 |--④-|
83
⑥⑦⑦口 |①-②③|
⑧⑫⑨口 |④⑤⑥-|
②③④⑤ |⑦-⑧⑨|
⑩①⑪① |⑩⑪⑫-|
84
口>━① |①--②|
④⑤⑥① |--③-|
②口③┃ |--④-|
口口口∧ |⑤-⑥-|
85
①④口① |①--②|
④口口① |--③-|
③口口③ |----|
口②②口 |④---|
86
⑥口④口 |①--②|
口③①① |--③-|
口⑤口口 |--④-|
②②③口 |⑤-⑥-|
87
口③口③ |①--②|
④口①口 |--③-|
②口③① |--④-|
⑤②口口 |⑤---|
88
⑬⑧⑨⑦ |①②③④|
⑭⑥⑩⑤ |⑤⑥⑦⑧|
⑮④⑪③ |⑨⑩⑪⑫|
⑯②⑫① |⑬⑭⑮⑯|
89
⑩⑥⑧④ |①-②③|
⑩③口② |-④⑤-|
口⑤⑨⑦ |⑥⑦-⑧|
口口口① |⑨-⑩-|
90
⑬⑫⑪⑩ |①---|
口口①① |②③④⑤|
⑥⑦⑧⑨ |⑥⑦⑧⑨|
②③④⑤ |⑩⑪⑫⑬|
91
口⑬⑬口 |①②③④|
④③②① |⑤⑥⑦⑧|
⑨⑩⑪⑫ |⑨⑩⑪⑫|
⑤⑥⑦⑧ |⑬---|
92
②⑥⑥① |①-②-|
②③③① |③---|
⑤口④⑥ |④-⑤-|
③⑤口④ |⑥---|
93
①口口② |①--②|
①口⑥④ |--③-|
口②口口 |④-⑤-|
③⑦⑤③ |⑥-⑦-|
94
①口①② |①---|
①①④口 |②-③-|
①④①④ |--④-|
③⑤口⑤ |⑤---|
95
口①③③ |①-②-|
⑤③⑤口 |--③-|
口⑤④④ |④---|
⑤口②口 |⑤---|
最終更新:2019年11月24日 06:03