アットウィキロゴ
unisonote [ 2 ]
Onoken

EXTREME

Level: 9.7
BPM: 168
Notes(hold): 807(70)

1
口口口口 |----|
口口口口 |----|
口口口口 |----|
口口口口 |----|
2
②④③① |①---|
口口口口 |②---|
口口口口 |③---|
①③④② |④---|
3
口口口口 |①---|
②③③① |②---|
①口口② |③---|
口④④口 |④---|
4
①③④② |①---|
口口口口 |②---|
口口口口 |③---|
②④③① |④---|
5
②口口① |①---|
口④口④ |②---|
③⑤③⑤ |③-④-|
①口口② |⑤---|
6
①③④② |①---|
口口口口 |②---|
口口口口 |③---|
②④③① |④---|
7
口口口口 |①---|
①③③② |②---|
②口口① |③---|
口④④口 |④---|
8
②④③① |①---|
口口口口 |②---|
口口口口 |③---|
①③④② |④---|
9
②口口① |①---|
④口④口 |②---|
⑤③⑤③ |③-④-|
①口口② |⑤---|
10
①口<① |①---|
口口口口 |②---|
口口口口 |③---|
口口口② |④-⑤-|

③∨③口
口口口口
口③口口
口口④口

口口口口
⑤口口口
口⑤口口
口口口口
11
②口口口 |①---|
口①口① |②---|
口口口② |③---|
口口口口 |④-⑤-|

口口口口
口⑤③口
口④口口
③口④口
12
①口② |①---|
口口口口 |②---|
口口口口 |③---|
口口口① |④-⑤-|

口③④口
口口口口
③⑤口口
口④③口
13
口∨口② |①---|
口①口口 |②---|
口口口口 |③-④-|
口口口① |⑤---|

∨口口口
③③口④
口口③⑤
口口口口
14
口>口① |①---|
①口口口 |②---|
口①口口 |③---|
②口口口 |④-⑤-|

口③∨③
口口口口
口口③口
口④口口

口口口口
口口口⑤
口口⑤口
口口口口
15
口口口② |①---|
①口①口 |②---|
②口口口 |③---|
口口口口 |④-⑤-|

口口口口
口③⑤口
口口④口
口④口③
16
②口①< |①---|
口口口口 |②---|
口口口口 |③---|
①口口口 |④-⑤-|

口④③口
口口口口
口口⑤③
口③④口
17
②口口口 |①---|
④口①< |②---|
口③口口 |③-④-|
①口口口 |⑤---|

口口口口
口口⑤口
⑤口口口
口口口口
18
③①①① |①-②-|
⑤口口④ |③---|
④口口⑤ |④---|
口②②② |⑤---|
19
口②①口 |①---|
口④口③ |②---|
口④口③ |③---|
口①②口 |④---|
20
①①①③ |①-②-|
口口口口 |③---|
口口口口 |④---|
②②②口 |⑤---|

∨口口口
④口口⑤
口口口④
口口口口
21
口∨②口 |①---|
■③⑤③ |②---|
①④口 |③-④-|
口口①口 |⑤---|
22
口口①① |①-②-|
■■口③ |③---|
口■口④ |④---|
口口②② |⑤---|

口口⑤口
■■口口
口■口口
口口口口
23
③口口① |①---|
④④口口 |②---|
口④④④ |③---|
口②②口 |④---|
24
③①①① |①-②-|
⑤口口④ |③---|
④口口⑤ |④---|
口②②② |⑤---|
25
口②①口 |①---|
口④口④ |②---|
③⑤③⑤ |③---|
口①②口 |④-⑤-|
26
①口①口 |①---|
口口口口 |----|
口口口口
∧口∧口
27
①口①口 |①---|
口口口口 |--②-|
①口①口 |③--④|
∧口∧口 |--⑤-|

口②口④
口⑤④⑤
②口②③
口口③口
28
①口⑥⑥ |--①-|
③口⑤⑥ |②---|
口④口口 |③④⑤-|
口②口口 |⑥---|
29
口口口口 |①---|
口①口< |--②-|
口口口口 |③--④|
口①口< |--⑤-|

口④口口
④②口口
⑤③⑤②
③②口口
30
口③⑦① |--①-|
口④口⑦ |②---|
⑧⑤⑧口 |③④⑤⑥|
口⑥②口 |⑦-⑧-|
31
口>口① |①---|
口口口口 |--②-|
口>口① |③④⑤⑥|
口口口口 |⑦⑧⑨-|

口⑧③②
口②④口
⑨⑤⑦②
口⑥口口
32
口口口口 |--①-|
②③④⑤ |②③④⑤|
口口口口 |⑥---|
口口口① |⑦-⑧-|

⑥口⑥口
口∨∨口
口口口口
口⑦⑦口

口口口口
口口口口
口口口口
口⑧⑧口
33
口①④① |①-②-|
口③⑧③ |③-④-|
口⑤②⑤ |⑤-⑥-|
口⑦⑥⑦ |⑦-⑧-|
34
①①⑦⑦ |--①-|
①口口⑦ |--②-|
⑥⑤④③ |③④⑤⑥|
②口②口 |⑦---|
35
①口口口 |①---|
∧口口口 |②---|
口口口口 |③-④-|
口②口① |⑤---|

③∨口⑤
口③③⑤
口口口口
口口④口
36
口口①口 |①---|
口①∧口 |②---|
口口口口 |--③-|
口②口① |④---|

口口④③
口口口口
口口④④
口口口口
37
口口口口 |①---|
口>①口 |②---|
口口口口 |③-④-|
口口口① |⑤---|

口②<口
口口②口
口口口口
口口②口

口③口口
③口③
口口④口
口口口口

⑤口口口
∧⑤口口
口口口口
口⑤口口
38
①∨③② |①---|
口口④口 |②---|
口①⑤口 |③④⑤-|
口口①① |⑥---|

口⑥口口
口口口口
口⑥口⑥
口口口口
39
口口口① |①---|
口口口∧ |②---|
口口口口 |③-④-|
①口②口 |⑤---|

口口∨③
④口③口
③口口口
口口口口

口>⑤口
口口⑤口
口口口口
口⑤口口
40
①口①口 |①---|
口口口口 |②---|
口口>① |--③-|
口口口口 |④-⑤-|

口>口②
口口口口
②②口②
口口口口

口口口③
④口④口
口口⑤口
③口口口
41
口①口口 |①---|
口∧口口 |②---|
口口口口 |③---|
口①口口 |④---|

口②②口
口口∧口
②口口口
口口口口

③口③口
口口口∨
口口口③
口口口口

口口>④
口口口口
口④口④
口口口口
42
⑤口口① |①-②-|
①①②口 |③-④-|
③⑥①< |⑤-⑥-|
④④口口 |⑦---|

口⑦⑦口
口口口口
口口⑦口
口口口口
43
⑧⑥⑥口 |①---|
②③④⑤ |②③④⑤|
①口口① |⑥-⑦-|
⑧⑦⑦口 |--⑧-|
44
口④④② |--①-|
①口①口 |--②-|
口①口① |--③-|
口③③② |④---|
45
①⑦口口 |①-②-|
⑦③④② |③-④-|
⑤①⑥⑧ |⑤-⑥-|
口口⑧④ |⑦-⑧-|
46
①③③② |--①-|
口口口口 |--②-|
口口口口 |--③-|
①④④② |④---|
47
口口③⑤ |①---|
②口③③ |②-③-|
①口口① |--④-|
②④④⑤ |--⑤-|
48
②口口⑥ |--①-|
⑤①③① |--②-|
①④①口 |--③④|
②口⑤口 |⑤-⑥-|
49
②口①口 |①-②-|
口③⑧⑥ |③-④-|
口口④口 |⑤-⑥-|
①⑦⑤ |⑦-⑧-|
50
口口③① |①-②-|
①口口 |③-④-|
口口④② |⑤-⑥-|
口■口口 |⑦-⑧-|

口口口口
⑦⑦⑦⑤
口口口口
口⑦⑧⑥
51
①③① |①-②-|
口口⑦⑤ |③-④-|
①<②④ |⑤-⑥-|
口口⑥⑧ |⑦-⑧-|
52
口■③④ |①-②-|
口①⑥口 |③-④-|
■⑦②⑤ |⑤-⑥-|
口口⑧口 |⑦-⑧-|
53
口①口口 |①---|
口①口口 |----|
①口①口 |----|
口口口口 |----|
54
口口口口 |----|
口口口口 |----|
口口口口 |----|
口口口口 |----|
55
口口口口 |----|
口口口口 |----|
口口口口 |----|
口口口口 |----|
56
口口④口 |----|
口③口口 |----|
②口口口 |①-②-|
口①口口 |③-④-|
57
①①口① |①---|
口口口口 |----|
口口口∧ |②---|
口口口口 |--③-|

口口口②
口口∨口
口口②口
②②口口

口口口口
③口口③
口口③口
口口口口
58
①①口口 |①---|
口口①口 |②---|
口口口② |③---|
③③③口 |④-⑤-|

口口口口
口口⑤口
口④口口
口口口口
59
①①>① |①---|
口口口口 |----|
口口口口 |②---|
口口口口 |③-④-|

口口③②
④口口口
口口口②
②②口口
60
①①口口 |①---|
⑤③①① |②---|
④⑥③③ |③-④-|
②②②② |⑤-⑥-|
61
①口>① |①---|
口口口口 |②---|
口口口口 |③---|
②口口口 |④---|

口③口③
口口∨口
口口③口
口④口口
62
①口①口 |①---|
口口∧口 |②---|
口口①口 |③-④-|
口口口口 |⑤-⑥-|

口口②口
口口口口
口口口②
②口口∧

口口口∨
口④口③
口③口③
口口口口

口口口⑥
⑤口口⑤
口口⑤口
口口口口
63
③①①口 |①-②-|
口口∧口 |③-④-|
②④口口 |⑤-⑥-|
口口口口 |⑦-⑧-|

口口⑤口
口⑤口口
口口>⑤
⑥口口口

口口口口
⑦口⑦<
口口口⑦
口⑧口口
64
口②口① |①---|
③口①③ |②---|
①口②口 |③---|
口口口口 |④⑤⑥⑦|

口口口⑦
口口⑥口
口⑤口口
④口口口
65
①①①口 |①---|
∧∧口③ |②---|
口口⑤⑤ |③-④-|
口②④口 |⑤---|
66
③③①③ |①---|
∨口⑤⑤ |②---|
③口④口 |③-④-|
口口口② |⑤---|
67
口口①口 |①---|
口①口口 |②---|
①口口口 |③-④-|
口∧口② |⑤---|

口口口口
口口口③
口口⑤⑤
口④口口
68
①口口① |①---|
∧①口口 |②---|
口口口口 |③-④-|
口口②口 |⑤---|

③③<口
口口⑤⑤
口③口④
口口口口
69
口①①口 |①---|
口口口口 |②---|
①口<口 |③-④-|
口口口② |⑤---|

口口口口
口口口④
口口⑤⑤
口口③口
70
∨口①口 |①---|
①口口口 |②---|
①口口口 |③-④-|
口口口② |⑤---|

③口③
③口口口
口口④口
口口口口

口⑤口口
口口⑤⑤
⑤口口
口口口口
71
口口①口 |①---|
①口口 |②---|
口①口口 |③-④-|
口口口② |⑤⑥⑦⑧|

口口口⑤
口④⑥③
口⑦口口
⑧口④口
72
④①①口 |①-②-③-|
②口口⑤ |④-⑤-⑥-|
④口口口 |⑦-⑧-⑨-|
口③⑥口 |⑩-⑪-⑫-|

口⑩⑩⑪
口⑧口口
口口⑫⑦
⑨口口⑦
73
④口口⑥ |①-②-③-|
①⑥②⑤ |④---|
口④口口 |⑤-⑥-|
⑥③口④ |----|
74
③①③口 |①---|
②④①口 |②---|
③②③① |③-④-|
口口②口 |⑤-⑥-|

口口口口
口口⑥⑤
口口口口
口口口口
75
⑤①口③ |①---|
①口口口 |②---|
④④④④ |③-④-|
②②②② |⑤---|
76
③⑤⑤③ |①---|
口①②口 |②---|
口④④口 |③-④-|
口①②口 |⑤---|
77
④④口④ |①---|
②②口③ |②---|
③③口② |③---|
①①口① |④---|
78
⑦⑤⑧⑦ |①-②-|
③①⑥⑤ |③-④-|
⑤⑦④③ |⑤-⑥-|
①③②① |⑦-⑧-|
79
⑦⑧口⑥ |①-②-|
③①口③ |③-④-|
⑤⑥⑤⑦ |⑤-⑥-|
②④口① |⑦-⑧-|
80
⑥口⑦⑧ |①-②-|
③口③① |③-④-|
⑦⑤⑤⑥ |⑤-⑥-|
①口②④ |⑦-⑧-|
81
⑦⑧⑦⑧ |①-②-|
③①③① |③-④-|
⑤⑥⑤⑥ |⑤-⑥-|
②④②④ |⑦-⑧-|
82
⑤⑦⑨⑪ |①-②-|
③①③① |③-④-|
⑥⑧⑩⑫ |⑤⑥⑦⑧|
②④②④ |⑨⑩⑪⑫|
83
口口口口 |----|
①①①① |①---|
∧∧∧∧ |----|
口口口口 |----|
84
口口口口 |----|
■■■■ |----|
口口口口 |----|
口口口口 |----|
85
口口口口 |----|
■■■■ |----|
口口口口 |----|
口口口口 |----|
86
口口口口 |①---|
①①①① |----|
口口口口 |----|
口口口口 |----|
最終更新:2019年11月11日 13:52