アットウィキロゴ
SigSig [ 2 ]
kors k

EXTREME

Level: 9.6
BPM: 179
Notes(hold): 939(54)

1
口口口口 |----|
口口口口 |----|
口口口口 |----|
口口口口 |----|
2
①口②口 |①-②-|
③口④口 |③-④-|
⑤①⑥口 |⑤-⑥-|
⑦口⑧口 |⑦-⑧-|
3
口②口① |①-②-|
口④口③ |③-④-|
口⑥口⑤ |⑤-⑥-|
口⑧口⑦ |⑦-⑧-|
4
口②口① |①-②-|
口④口③ |③-④-|
口⑥①⑤ |⑤-⑥-|
口⑧口⑦ |⑦-⑧-|
5
①口②口 |①-②-|
③口④口 |③-④-|
⑤口⑥口 |⑤-⑥-|
⑦口⑧口 |⑦-⑧-|
6
①口②口 |①-②-|
③口④口 |③-④-|
⑤①⑥口 |⑤-⑥-|
⑦口⑧口 |⑦-⑧-|
7
口②口① |①-②-|
口④口③ |③-④-|
口⑥口⑤ |⑤-⑥-|
口⑧口⑦ |⑦-⑧-|
8
口②口① |①-②-|
口④口③ |③-④-|
口⑥①⑤ |⑤-⑥-|
口⑧口⑦ |⑦-⑧-|
9
①①①① |①---|
口②口口 |②---|
③③③③ |③---|
②口②口 |----|
10
①⑦②① |①-②-|
③口④| |③-④-|
⑤⑧⑥∧ |⑤-⑥-|
口口口口 |⑦-⑧-|
11
⑤⑦口① |①-②-|
②①⑥⑥ |③-④-|
⑥⑧⑧⑧ |⑤-⑥-|
④③⑦⑦ |⑦-⑧-|
12
⑤⑥②① |①-②-|
④③⑦⑧ |③-④-|
⑧⑧口口 |⑤-⑥-|
口口口口 |⑦-⑧-|
13
口口③口 |①-②-|
⑤②口口 |③-④-|
口⑦⑦④ |⑤-⑥-|
①①⑥① |⑦-⑧-|

口口口口
口口口口
口口口口
⑧⑧口口
14
①②⑦① |①-②-|
|④口③ |③-④-|
∧⑥⑧⑤ |⑤-⑥-|
口口口口 |⑦-⑧-|
15
①口口⑦ |①-②-|
③⑤②② |③-④-|
⑧⑧口口 |⑤-⑥-|
④⑥①① |⑦-⑧-|
16
①①口口 |①---|
口④③③ |--②-|
口口口口 |③---|
口④②② |--④-|
17
⑤③①⑦ |①-②-|
②⑧⑥④ |③-④-|
⑤③①⑦ |⑤-⑥-|
口口口口 |⑦-⑧-|
18
⑨⑩⑪⑫ |①②③④|
⑤口口⑧ |⑤⑥⑦⑧|
⑬⑥⑦⑬ |⑨⑩⑪⑫|
①②③④ |⑬---|
19
④④口口 |①---|
口①②② |②-③-|
口⑤口口 |④-⑤-|
③①口口 |⑥---|

口口∨⑥
口口|口
口口|口
口口⑥口
20
④④②口 |①---|
口①口② |②-③-|
①口⑥⑥ |④-⑤-|
⑤口①③ |⑥-⑦-|

口口口口
口口口口
⑦⑦口口
口口口口
21
口口④④ |①---|
②②①口 |②-③-|
口口⑤口 |④-⑤-|
口口①③ |⑥---|

⑥∨口口
口|口口
口|口口
口⑥口口
22
⑥⑧口口 |①---|
②口①⑤ |②-③-|
⑨⑦口① |④-⑤-|
③①口④ |⑥⑦⑧⑨|
23
口口④④ |①---|
②②①口 |②-③-|
口口⑤口 |④-⑤-|
口口①③ |⑥---|

⑥∨口口
口|口口
口|口口
口⑥口口
24
口②④④ |①---|
②口①口 |②-③-|
⑥⑥口① |④-⑤-|
③①口⑤ |⑥-⑦-|

口口口口
口口口口
口口⑦⑦
口口口口
25
④④口口 |①---|
口①②② |②-③-|
口⑤口口 |④-⑤-|
③①口口 |⑥---|

口口∨⑥
口口|口
口口|口
口口⑥口
26
口口⑧⑥ |①---|
⑤①口② |②-③-|
①口⑦⑨ |④-⑤-|
④口①③ |⑥⑦⑧⑨|
27
②口口口 |①-②-|
⑦①⑤⑥ |③④⑤⑥|
③④口口 |⑦-⑧-|
口①口⑧ |⑨-⑩-|

――⑨
口口口口
口口口口
口口⑨口

口口口⑩
口口口口
口口口口
口口口口
28
④④②口 |①---|
口①口② |②-③-|
③⑤口口 |④-⑤-|
⑥①口⑦ |⑥-⑦-|
29
口口口② |①-②-|
⑥⑤①⑦ |③④⑤⑥|
口口④③ |⑦-⑧-|
⑧口①口 |⑨-⑩-|

⑨――<
口口口口
口口口口
口⑨口口

⑩口口口
口口口口
口口口口
口口口口
30
口口②口 |①---|
口③①④ |②-③-|
④――< |④---|
口口①口 |⑤-⑥-|

⑤――<
口口口口
⑤⑤口口
口口口口

⑥口口口
口口口口
口口口口
口口口口
31
口口口② |①-②-|
⑥⑤①⑦ |③④⑤⑥|
口口④③ |⑦-⑧-|
⑧口①口 |⑨-⑩-|

⑨――<
口口口口
口口口口
口⑨口口

⑩口口口
口口口口
口口口口
口口口口
32
口②④④ |①---|
②口①口 |②-③-|
口口⑤③ |④-⑤-|
⑦口①⑥ |⑥-⑦-|
33
②口口口 |①-②-|
⑦①⑤⑥ |③④⑤⑥|
③④口口 |⑦-⑧-|
口①口⑧ |⑨-⑩-|

――⑨
口口口口
口口口口
口口⑨口

口口口⑩
口口口口
口口口口
口口口口
34
口口口口 |①---|
口①②② |②---|
③③口口 |③---|
口①口口 |④-⑤-|

④口口④
|口口|
|口口|
∧口口∧

⑤口口⑤
口口口口
口口口口
口口口口
35
口①⑧口 |①-②③|
①③②⑩ |④⑤⑥⑦|
口⑤④口 |⑧-⑨-|
⑨⑦⑥⑪ |⑩-⑪-|
36
①①口口 |①-②-|
口③口口 |③---|
口口②口 |④-⑤-|
口③口口 |⑥-⑦-|

――④
口口口口
――④
口口口口

口口口⑤
⑥――<
口口口⑤
⑥――<

口口口口
⑦口口口
口口口口
⑦口口口
37
口⑧①口 |①-②③|
⑩②③① |④⑤⑥⑦|
口④⑤口 |⑧-⑨-|
⑪⑥⑦⑨ |⑩-⑪-|
38
口口①口 |①-②-|
口口|口 |③-④-|
口口|口 |⑤-⑥-|
口口∧口 |⑦-⑧-|

口∨②口
口|口口
口|口口
口③口口

口口口口
――⑤
口口口口
口④口口

口口口口
口口口⑥
⑦――<
口口口口

口口口口
口口口口
⑧口口口
口口口口
39
口①⑧口 |①-②③|
①③②⑩ |④⑤⑥⑦|
口⑤④口 |⑧-⑨-|
⑨⑦⑥⑪ |⑩-⑪-|
40
①①口口 |①-②-|
口③口口 |③---|
口口②口 |④-⑤-|
口③口口 |⑥-⑦-|

――④
口口口口
――④
口口口口

口口口⑤
⑥――<
口口口⑤
⑥――<

口口口口
⑦口口口
口口口口
⑦口口口
41
口⑧①口 |①-②③|
⑩②③① |④⑤⑥⑦|
口④⑤口 |⑧-⑨-|
⑪⑥⑦⑨ |⑩-⑪-|
42
口口①口 |①-②-|
口口|口 |③-④-|
口口|口 |⑤-⑥-|
口口∧口 |⑦-⑧-|

口∨②口
口|口口
口|口口
口③口口

口口口口
――⑤
口口口口
口④口口

口口口口
口口口⑥
⑦――<
口口口口

口口口口
口口口口
⑧口口口
口口口口
43
①口②口 |①-②-|
③口④口 |③-④-|
⑦①⑧口 |⑤-⑥-|
⑤口⑥口 |⑦-⑧-|
44
口②口① |①-②-|
口④口③ |③-④-|
口⑦口⑧ |⑤-⑥-|
口⑤口⑥ |⑦-⑧-|
45
③①口① |①-②-|
⑦⑤③⑦ |③-④-|
②口④口 |⑤-⑥-|
⑥⑧⑤口 |⑦-⑧-|
46
口①>① |①-②-|
口口口口 |③-④-|
口口口口 |⑤-⑥-|
口口口口 |⑦-⑧-|

③口口②
口口口口
②口>③
口口口口

口口口口
⑥④⑤口
口口|④
⑤口∧口

口⑧⑧口
口口⑦口
口口口口
口⑦口口
47
②口口口 |①-②-|
⑤③⑦③ |③-④-|
④①①④ |⑤-⑥-|
⑦⑥口⑤ |⑦-⑧-|

口口口口
口口口口
口⑧口口
口口口口
48
①口⑤① |①-②-|
④②口口 |③-④-|
③⑦口口 |⑤-⑥-|
⑥⑤③⑦ |⑦-⑧-|

⑧口口口
口口口口
口口口口
口口口口
49
⑧口⑤口 |①-②-|
③①①① |③-④-|
②⑥⑦④ |⑤-⑥⑦|
⑤④③⑧ |⑧-⑨-|

口口口口
口口口⑨
口口口口
口口口口
50
口口>① |①-②-|
口口口口 |③-④-|
①口口口 |⑤-⑥-|
口口口口 |⑦-⑧-|

口口口②
②口口口
口口>③
口③口口

⑥口口口
口⑤⑤口
口口|④
④口∧口

口⑦口口
口口⑦口
口⑧口口
口口口口
51
口⑤①口 |①---|
②③口① |②-③-|
⑤口口④ |④---|
口口④口 |⑤---|
52
②>③③ |①---|
②④口∧ |②---|
口①①口 |③-④-|
口④口口 |--⑤-|

口口⑤⑤
口口口口
⑤口⑤口
口口口口
53
口④口口 |①---|
④口③② |②-③-|
口①口① |④---|
口⑤⑤口 |⑤---|
54
①――< |①-②-|
口口口口 |③-④-|
口①①口 |⑤---|
口口口口 |--⑥-|

②口口口
口③③口
口口口口
③――<

口⑤⑤口
⑤――<
⑤――<
④口口口

口口口口
⑥口口口
⑥口口口
口口⑥⑥
55
②③④① |①---|
⑦⑦⑥① |②-③-|
口口口④ |④-⑤-|
⑤⑤⑥口 |⑥-⑦-|
56
口②⑤⑤ |①---|
口④④② |②---|
③①①口 |③---|
口③口口 |④-⑤-|
57
③③口口 |①---|
⑤⑥⑦② |②-③-|
④④①① |④-⑤⑥|
口⑧③口 |⑦-⑧-|
58
⑥口⑤⑦ |①---|
口口⑧② |②---|
④⑨③② |③④⑤⑥|
①口口① |⑦⑧⑨⑩|

口口口口
口口口口
口口口口
⑩口口口
59
⑤④口口 |①---|
口②口口 |②-③-|
④口③口 |④---|
口⑤①① |⑤---|
60
③口口 |①---|
③④①口 |②---|
∧②⑤② |③-④⑤|
口口①⑥ |⑥-⑦-|

口⑦口口
⑦口口⑦
口口口口
口口口口
61
口口④⑤ |①---|
口口②口 |②-③-|
口③口④ |④---|
①①⑤口 |⑤---|
62
口口③< |①---|
口②④③ |②---|
①⑤①∧ |③-④⑤|
⑥②口口 |⑥-⑦-|

口口⑦口
⑦口口⑦
口口口口
口口口口
63
⑤④口口 |①---|
口②口口 |②-③-|
④口③口 |④---|
口⑤①① |⑤---|
64
④⑦口口 |①---|
⑤③②③ |②---|
⑥①⑥① |③-④⑤|
口口②口 |⑥-⑦-|
65
⑤口④口 |①---|
口⑥②口 |②-③-|
⑧③⑦④ |④-⑤⑥|
口①口① |⑦-⑧-|
66
③口⑤⑦ |①---|
②口⑧② |②---|
⑥⑨④口 |③④⑤⑥|
⑩①①口 |⑦⑧⑨⑩|
67
口⑤口⑥ |①-②-|
口③口口 |③-④-|
⑤口④② |⑤-⑥-|
⑦⑦①① |⑦-⑧-|

口口口口
口口口口
口口口口
口口口⑧
68
⑤④口 |①-②-|
⑤⑥①① |③-④-|
∧③⑦③ |⑤-⑥⑦|
口口②⑧ |⑧-⑨-|

口⑨口口
⑨口口⑨
口口口口
口口口口
69
⑥口⑤口 |①-②-|
口口③口 |③-④-|
②④口⑤ |⑤-⑥-|
①①⑦⑦ |⑦-⑧-|

口口口口
口口口口
口口口口
⑧口口口
70
口④⑤< |①-②-|
①①⑥⑤ |③-④-|
③⑦③∧ |⑤-⑥⑦|
⑧②口口 |⑧-⑨-|

口口⑨口
⑨口口⑨
口口口口
口口口口
71
⑥⑤⑧⑥ |①-②-|
⑧③口口 |③-④-|
⑤口④② |⑤-⑥-|
⑦⑦①① |⑦-⑧-|
72
口④口口 |①---|
口③②③ |②---|
④①④① |③---|
口口②口 |④---|
73
①口④① |①---|
⑤⑧②⑧ |②-③-|
⑥③口④ |④-⑤⑥|
⑦口口口 |⑦-⑧-|
74
①⑧⑨① |①---|
⑦口②⑩ |②---|
③④⑤⑥ |③④⑤⑥|
口②口② |⑦⑧⑨⑩|
75
①口口① |①---|
|口口⑤ |--②-|
|④④口 |③---|
∧③口② |④-⑤-|
76
①①①口 |①---|
②④④口 |--②-|
口口口口 |③---|
口③口口 |④---|
77
①口口① |①---|
口口口| |--②-|
口④④| |③---|
②口③∧ |④---|
78
口①②① |①---|
①口口② |②---|
③④⑤⑥ |③-④-|
口口口口 |⑤-⑥-|
79
①口口① |①---|
|口口口 |--②-|
|④④口 |③---|
∧③口② |④---|
80
①③②口 |①---|
口②④① |②---|
口⑤口① |③-④-|
口口⑥口 |⑤-⑥-|
81
①口口① |①---|
口④④| |--②-|
②口③| |③---|
口口口∧ |④---|
82
①口口① |①---|
口口口口 |②---|
③口口③ |③---|
口②②口 |----|
83
①口口④ |①-②-|
⑤②③⑧ |③-④-|
口⑥⑦口 |⑤-⑥-|
口口口口 |⑦-⑧-|
84
口口⑦口 |①-②-|
⑤口口⑨ |③-④-|
①⑥⑧④ |⑤-⑥⑦|
口②③口 |⑧-⑨-|
85
①口口④ |①-②-|
⑤②③⑧ |③-④-|
口⑥⑦口 |⑤-⑥-|
口口口口 |⑦-⑧-|
86
⑤⑥⑧口 |①-②-|
口口口⑦ |③-④-|
⑧⑨⑥④ |⑤-⑥⑦|
①②③⑨ |⑧-⑨-|
87
④口口① |①-②-|
⑧③②⑤ |③-④-|
口⑦⑥口 |⑤-⑥-|
口口口口 |⑦-⑧-|
88
口⑥口口 |①-②-|
⑧口口⑤ |③-④-|
④⑦⑥① |⑤-⑥-|
口③②口 |⑦-⑧-|
89
④口口① |①-②-|
⑧③②⑤ |③-④-|
口⑦⑥口 |⑤-⑥-|
口口口口 |⑦-⑧-|
90
⑥①①③ |①---|
⑧口⑨⑦ |②---|
④⑩口⑤ |③④⑤⑥|
②口口② |⑦⑧⑨⑩|
91
口①①口 |①---|
口①口口 |----|
口口①口 |----|
口①①口 |----|
最終更新:2021年12月31日 00:58