アットウィキロゴ
Virtual Bit
KAN TAKAHIKO

BASIC

Level: 3
BPM: 152
Notes: 209

1
口口口口 |----|
口口口口 |----|
口口口口 |----|
口口口口 |----|
2
口口口口 |----|
口口口口 |----|
口口口口 |----|
口口口口 |----|
3
口口口口 |----|
口口口口 |----|
口口口口 |----|
口口口口 |----|
4
口口口口 |----|
口口口口 |----|
口口口口 |----|
口口口口 |----|
5
口口口口 |----|
口口口口 |----|
口口口口 |----|
口口口口 |----|
6
口口口口 |①---|
口口口口 |----|
口口口① |----|
口口口口 |----|
7
口口口口 |①---|
口口口口 |----|
口口①口 |----|
口口口口 |----|
8
口口口口 |①---|
口口口口 |----|
口①口口 |----|
口口口口 |----|
9
口口口口 |①---|
口口口口 |----|
①口口口 |----|
口口口口 |----|
10
口口口口 |①---|
口口口口 |----|
口②②口 |②---|
口①①口 |----|
11
口口口口 |①---|
口①①口 |----|
口口口口 |----|
口口口口 |----|
12
①口口① |①---|
②口口② |----|
口口口口 |②---|
口口口口 |----|
13
口口口口 |①---|
口口口口 |----|
①口口① |----|
口口口口 |----|
14
口口口口 |①---|
口口口口 |----|
口②②口 |②---|
口①①口 |----|
15
口口口口 |①---|
口①①口 |----|
口口口口 |----|
口口口口 |----|
16
①口口① |①---|
②口口② |----|
口口口口 |②---|
口口口口 |----|
17
口口口口 |①---|
口口口口 |----|
①口口① |----|
口口口口 |----|
18
口口口口 |①---|
口口③口 |②---|
口口②口 |③---|
口口①口 |----|
19
口口口口 |①---|
口③口口 |②---|
口②口口 |③---|
口①口口 |----|
20
口口口口 |①---|
口口③口 |②---|
口口②口 |③---|
口口①口 |----|
21
口口口口 |①---|
口③口口 |②---|
口②口口 |③---|
口①口口 |----|
22
口口口① |①---|
口口口② |②---|
口口口③ |③---|
口口口口 |----|
23
①口口口 |①---|
②口口口 |②---|
③口口口 |③---|
口口口口 |----|
24
口①①口 |①---|
口②②口 |②---|
口③③口 |③---|
口口口口 |----|
25
口口口口 |①---|
①口口① |----|
②口口② |②---|
口口口口 |----|
26
口口口口 |①---|
口口口口 |②---|
口口口口 |③---|
④③②① |④---|
27
口口口口 |①---|
口口口口 |②---|
①②③④ |③---|
口口口口 |④---|
28
口口口口 |①---|
④③②① |②---|
口口口口 |③---|
口口口口 |④---|
29
口①①口 |①---|
口②②口 |----|
口口口口 |②---|
口口口口 |----|
30
④③②① |①---|
口口口口 |②---|
口口口口 |③---|
口口口口 |④---|
31
口口口口 |①---|
①②③④ |②---|
口口口口 |③---|
口口口口 |④---|
32
口口口口 |①---|
口②②口 |----|
口①①口 |②---|
口口口口 |----|
33
口①①口 |①---|
口口口口 |----|
口口口口 |----|
口口口口 |----|
34
①口口① |①---|
口口口口 |----|
口口口口 |----|
口口口口 |----|
35
口口口口 |①---|
口口口口 |----|
口口①口 |----|
口口口口 |----|
36
口口口口 |①---|
口口口口 |----|
口①口口 |----|
口口口口 |----|
37
口口口口 |①---|
口口口口 |----|
口口口口 |----|
口口①口 |----|
38
口口口口 |①---|
口口口口 |----|
口口口口 |----|
口①口口 |----|
39
口口口口 |①---|
口口口口 |----|
①口口① |----|
口口口口 |----|
40
口口口口 |①---|
①口口① |----|
口口口口 |----|
口口口口 |----|
41
①口口① |①---|
口口口口 |----|
口口口口 |----|
口口口口 |----|
42
口口口口 |①---|
口①①口 |----|
口①①口 |----|
口口口口 |----|
43
口口口口 |①---|
口①①口 |----|
口①①口 |----|
口口口口 |----|
44
口口口口 |----|
口口口口 |----|
口口口口 |----|
口口口口 |----|
45
口口口口 |----|
口口口口 |----|
口口口口 |----|
口口口口 |----|
46
口口口口 |----|
口口口口 |----|
口口口口 |----|
口口口口 |----|
47
口口口口 |①---|
口口口口 |----|
口口口② |②---|
口口口① |----|
48
口口口口 |①---|
口口口① |----|
口口口口 |----|
口口口口 |----|
49
口口口口 |①---|
口口口口 |----|
口口②口 |②---|
口口①口 |----|
50
口口口口 |①---|
口口①口 |----|
口口口口 |----|
口口口口 |----|
51
口口口口 |①---|
口口口口 |----|
口②口口 |②---|
口①口口 |----|
52
口口口口 |①---|
口①口口 |----|
口口口口 |----|
口口口口 |----|
53
口口口口 |①---|
口口口口 |----|
②口口口 |②---|
①口口口 |----|
54
口口口口 |①---|
①口口口 |----|
口②②口 |②---|
口口口口 |----|
55
①口口① |①---|
②口口② |②---|
③口口③ |③---|
④口口④ |④---|
56
口④④口 |①---|
口③③口 |②---|
口②②口 |③---|
口①①口 |④---|
57
①口口① |①---|
②口口② |②---|
③口口③ |③---|
④口口④ |④---|
58
口口口口 |①---|
口①①口 |----|
口①①口 |----|
口口口口 |----|
59
口③②① |①---|
口口口口 |②---|
口口口口 |③---|
口口口口 |----|
60
口口口口 |①---|
口①②③ |②---|
口口口口 |③---|
口口口口 |----|
61
口口口口 |①---|
口口口口 |②---|
口③②① |③---|
口口口口 |----|
62
口口口口 |①---|
口口口口 |②---|
口口口口 |③---|
口①②③ |----|
63
口口口口 |①---|
口口口口 |②---|
口口口口 |③---|
①②③口 |----|
64
口口口口 |①---|
口口口口 |②---|
③②①口 |③---|
口口口口 |----|
65
口口口口 |①---|
①②③口 |②---|
口口口口 |③---|
口口口口 |----|
66
①口口① |①---|
口②②口 |----|
口②②口 |②---|
口口口口 |----|
67
④③②① |①---|
口口口口 |②---|
口口口口 |③---|
口口口口 |④---|
68
口口口口 |①---|
①②③④ |②---|
口口口口 |③---|
口口口口 |④---|
69
口口口口 |①---|
口口口口 |②---|
④③②① |③---|
口口口口 |④---|
70
口口口口 |①---|
口口口口 |②---|
口口口口 |③---|
①②③④ |④---|
71
口口口口 |①---|
口口口口 |②---|
④③②① |③---|
口口口口 |④---|
72
口口口口 |①---|
①②③④ |②---|
口口口口 |③---|
口口口口 |④---|
73
口①①口 |①---|
口②②口 |----|
口口口口 |②---|
口口口口 |----|
74
口口口口 |①---|
口口口口 |----|
口①①口 |②---|
口②②口 |----|
75
口口口口 |①---|
①口口① |----|
口口口口 |----|
口口口口 |----|

accuracy: 100%
最終更新:2022年03月26日 03:19