アットウィキロゴ
Virtual Bit
KAN TAKAHIKO

ADVANCED

Level: 7
BPM: 152
Notes: 571

1
口口口口 |----|
口口口口 |----|
口口口口 |----|
口口口口 |----|
2
口口口① |①---|
口口口② |②---|
口口口③ |③---|
口口口④ |④---|
3
口口口① |①---|
口口口② |②---|
口口口③ |③---|
口口口④ |④---|
4
①口口口 |①---|
②口口口 |②---|
③口口口 |③---|
④口口口 |④---|
5
①口口口 |①---|
②口口口 |②---|
③口口口 |③---|
④口口④ |④---|
6
①口口① |①---|
口口口② |②---|
口口口③ |③---|
口口口④ |④---|
7
口口口① |①---|
口口口② |②---|
口口口③ |③---|
④口口④ |④---|
8
①口口① |①---|
②口口口 |②---|
③口口口 |③---|
④口口口 |④---|
9
①口口口 |①---|
②口口口 |②---|
③口口口 |③---|
④口口④ |④---|
10
⑥⑥①① |①-②-|
②②⑤⑤ |③---|
④④③③ |④-⑤-|
口口口口 |⑥---|
11
口口口口 |①-②-|
口口口口 |③-④-|
口口口口 |----|
④③②① |----|
12
①①⑥⑥ |①-②-|
⑤⑤②② |③---|
③③④④ |④-⑤-|
口口口口 |⑥---|
13
口口口口 |①-②-|
口口口口 |③-④-|
口口口口 |----|
①②③④ |----|
14
⑥⑥①① |①-②-|
②②⑤⑤ |③---|
④④③③ |④-⑤-|
口口口口 |⑥---|
15
口口⑦口 |①-②-|
口⑥口口 |③-④-|
口口⑤口 |--⑤-|
④③②① |⑥-⑦-|
16
①①⑥⑥ |①-②-|
⑤⑤②② |③---|
③③④④ |④-⑤-|
口口口口 |⑥---|
17
⑥口口⑥ |①-②-|
口⑤⑤口 |③-④-|
①②③④ |--⑤-|
①②③④ |⑥---|
18
口①①口 |①---|
口④③口 |②---|
④口口③ |③--④|
口②②口 |----|
19
口口口口 |-①--|
②④③① |②---|
口口口口 |③--④|
④①②③ |----|
20
口①①口 |①---|
口③④口 |②---|
③口口④ |③--④|
口②②口 |----|
21
⑤口口⑤ |--①②|
口口口口 |-③④-|
⑥④①⑥ |⑤---|
⑥②③⑥ |⑥---|
22
口①①口 |①---|
③口口③ |②---|
④口口④ |③--④|
⑤②②⑤ |--⑤-|
23
③口口③ |-①--|
④②②④ |②---|
⑤①①⑤ |③--④|
口口口口 |--⑤-|
24
口口③口 |①-②-|
⑥②口⑥ |③---|
⑤口①⑤ |④--⑤|
④口口④ |--⑥-|
25
①④④① |-①--|
口口②口 |②-③-|
口③口口 |④--⑤|
⑥⑥⑤⑤ |--⑥-|
26
①口口① |①---|
口③口② |②-③-|
口口口④ |④---|
⑤口口⑤ |⑤---|
27
口②口① |①-②-|
口口口③ |③---|
④口口④ |④---|
⑤口口⑤ |⑤---|
28
①口口① |①---|
口③口② |②-③-|
口⑤口④ |④-⑤-|
⑥口口⑥ |⑥---|
29
口②口① |①-②-|
口口口③ |③---|
口口④④ |④---|
⑤⑤⑤⑤ |⑤---|
30
口口口① |①---|
口③口② |②-③-|
口⑤口④ |④-⑤-|
⑥口口⑥ |⑥---|
31
口②口① |①-②-|
口口口③ |③---|
口⑤口④ |④-⑤-|
口⑦口⑥ |⑥-⑦-|
32
口③③口 |①-②-|
②②①① |③---|
口④⑤口 |④-⑤-|
④⑥口⑤ |--⑥-|
33
②⑤⑤① |①--②|
②④③① |--③-|
口④③口 |-④--|
口口口口 |⑤---|
34
口口口口 |①---|
口口口口 |----|
口口口口 |----|
①①①① |----|
35
口①①口 |①---|
①④④① |--②-|
②③③② |--③-|
口②②口 |--④-|
36
①口口① |----|
口口口口 |----|
口口口口 |①---|
②③③② |②-③-|
37
口③口口 |----|
④口②口 |--①-|
口⑤口① |②-③-|
口口口口 |④-⑤-|
38
①口口① |----|
口口口口 |--①-|
口口口口 |----|
口口口口 |----|
39
④②①③ |①---|
②④③① |--②-|
①③④② |--③-|
③①②④ |--④-|
40
④口②② |----|
④口口口 |--①-|
①口口④ |②--③|
③③口④ |--④-|
41
口口口口 |①---|
口①①口 |--②-|
口口口口 |----|
口②②口 |----|
42
①口口① |①---|
口口口口 |--②-|
口口口口 |----|
②口口② |----|
43
口①①口 |①---|
口①①口 |----|
口①①口 |----|
口口口口 |----|
44
口口口口 |----|
口口口口 |----|
口口口口 |----|
口口口口 |----|
45
口口口口 |----|
口口口口 |----|
口口口口 |----|
口口口口 |----|
46
口口口口 |----|
口口口口 |----|
口口口口 |----|
口口口口 |----|
47
口口口① |①---|
②口口② |②---|
口④口③ |③-④-|
⑤口口⑤ |⑤---|
48
①②口① |①-②-|
③④口③ |③-④-|
口口口⑤ |⑤---|
口口口⑥ |⑥---|
49
口口口① |①---|
②口口② |②---|
口④口③ |③-④-|
⑤口口⑤ |⑤---|
50
①②口① |①-②-|
③④口③ |③-④-|
口⑥口⑤ |⑤-⑥-|
⑦口口⑦ |⑦---|
51
口口口① |①---|
②口口② |②---|
口④口③ |③-④-|
⑤口口⑤ |⑤---|
52
①②①口 |①-②-|
③④③口 |③-④-|
口口⑤口 |⑤---|
口口⑥口 |⑥---|
53
口口口① |①---|
②口口② |②---|
口④口③ |③-④-|
⑤口口⑤ |⑤---|
54
①②①口 |①-②-|
③④③口 |③-④-|
口⑥⑤口 |⑤-⑥-|
⑦口⑦口 |⑦---|
55
口口口口 |①-②-③-|
④⑩⑦① |④-⑤-⑥-|
②⑧⑪⑤ |⑦-⑧-⑨-|
⑥⑫⑨③ |⑩-⑪-⑫-|
56
④⑩⑦① |①-②-③-|
②⑧⑪⑤ |④-⑤-⑥-|
⑥⑫⑨③ |⑦-⑧-⑨-|
口口口口 |⑩-⑪-⑫-|
57
②口口① |①-②-③-|
④⑫⑪③ |④-⑤-⑥-|
⑥⑩⑨⑤ |⑦-⑧-⑨-|
口⑧⑦口 |⑩-⑪-⑫-|
58
②②①① |①---②-|
口口口口 |--③---|
口口口口 |④---|
④④③③ |----|
59
⑤口口④ |①---|
②口口① |②---|
⑥口口③ |③---④-|
口口口口 |⑤---⑥-|
60
口③②口 |①---②-|
口③④口 |③---|
口⑥①口 |④---⑤-|
口⑥⑤口 |⑥---|
61
④口口⑤ |①---|
①口口② |②---|
③口口⑥ |③---④-|
口口口口 |⑤---⑥-|
62
⑩口口口 |①-②-③-|
⑦⑧⑨口 |④-⑤-⑥-|
④⑤⑥口 |⑦-⑧-⑨-|
①②③口 |⑩---|
63
⑤口口④ |①---|
②口口① |②---|
⑥口口③ |③---④-|
口口口口 |⑤---⑥-|
64
⑦③②⑦ |①---②-|
口⑥⑤口 |③---④-|
口④①口 |⑤-⑥---|
口口口口 |⑦---|
65
口②②口 |①---|
口口口口 |②---|
③口口④ |③---④-|
⑥①①⑤ |⑤---⑥-|
66
②②①① |①-②-③-|
④④③③ |④-⑤-⑥-|
⑥⑥⑤⑤ |⑦---|
口⑦⑦口 |----|
67
口③②① |①-②-|
④⑤⑥口 |③-④-|
口口⑦口 |⑤-⑥-|
口口⑧口 |⑦-⑧-|
68
①②③口 |①-②-|
口⑥⑤④ |③-④-|
口⑩⑨口 |⑤-⑥-|
口⑧⑦口 |⑦⑧⑨⑩|
69
口③②① |①-②-|
④⑤⑥口 |③-④-|
口口⑦口 |⑤-⑥-|
口口⑧口 |⑦-⑧-|
70
①②③口 |①-②-|
口⑥⑤④ |③-④-|
口⑩⑨口 |⑤-⑥-|
口⑧⑦口 |⑦⑧⑨⑩|
71
口③②① |①-②-|
④⑤⑥口 |③-④-|
口口⑦口 |⑤-⑥-|
口口⑧口 |⑦-⑧-|
72
①②③口 |①-②-|
口⑥⑤④ |③-④-|
口⑦口口 |⑤-⑥-|
⑦口口口 |⑦---|
73
②②①① |①-②-|
口口③③ |③---|
④口口⑤ |④-⑤-|
④⑥⑥⑤ |--⑥-|
74
②口口① |①--②|
口②①口 |--③-|
口④③口 |-④--|
④⑤⑤③ |⑤---|
75
口①①口 |①---|
口①①口 |----|
口口口口 |----|
口口口口 |----|

accuracy: 100%
最終更新:2022年03月26日 03:19