アットウィキロゴ
Virtual Bit
KAN TAKAHIKO

EXTREME

Level: 10.3
BPM: 152
Notes: 852

1
口口口口 |----|
口口口口 |----|
口口口口 |----|
口口口口 |----|
2
②口⑥② |①---|
④口⑤口 |②--③|
⑥口口③ |④-⑤-|
①口口① |⑥---|
3
④口口③ |①-②-|
③口⑥⑦ |③-④⑤|
口②⑤口 |--⑥-|
口①①口 |⑦---|
4
②口⑥② |①---|
④口⑤口 |②--③|
⑥口口③ |④-⑤-|
口口口① |⑥---|
5
④⑥口③ |①-②-|
③⑦⑥⑦ |③-④⑤|
口②⑤口 |--⑥-|
口①①口 |⑦---|
6
②口⑥② |①---|
④口⑤口 |②--③|
⑥口口③ |④-⑤-|
①口口① |⑥---|
7
④口口③ |①-②-|
③口⑥⑦ |③-④⑤|
口②⑤口 |--⑥-|
口①①口 |⑦---|
8
②口⑥② |①---|
④口⑤口 |②--③|
⑥口口③ |④-⑤-|
口口口① |⑥---|
9
④口口③ |①-②-|
③口口口 |③-④⑤|
口②⑤口
口①①口

口⑩⑥口
口⑨口口
口⑧口口 |--⑥-|
⑥⑦口口 |⑦⑧⑨⑩|
10
③口口⑥ |①-②-|
①⑤①⑤ |③---|
②④②④ |④-⑤-|
口⑥③口 |⑥---|
11
口③②口 |①-②-|
③口②口 |③-④-|
④口①口
④口口①

⑦口口口
口口口口
口口口口 |--⑤-|
口口⑤⑥ |⑥-⑦-|
12
⑥口口③ |①-②-|
⑤①⑤① |③---|
④②④② |④-⑤-|
口③⑥口 |⑥---|
13
口②③口 |①-②-|
口②口③ |③-④-|
口①口④
①口口④

⑨口口口
⑦口口口
⑤口口口 |⑤⑥⑦⑧|
⑩⑥⑧口 |⑨-⑩-|
14
口①③③ |①-②-|
口①口① |③---|
口②口②
口③口口

⑥口口口
⑤⑥⑤口
④口④口 |④-⑤-|
口口⑥④ |⑥---|
15
口口①① |①-②-|
④口⑤② |③-④-|
④口⑥② |--⑤-|
③③⑦⑤ |⑥-⑦-|
16
①口口③ |①-②-|
口①口① |③---|
口②口②
③③口口

⑥口口口
⑤口⑤口
④口④口 |④-⑤-|
口口⑥④ |⑥---|
17
口③②① |①-②-|
口①④③ |③-④-|
口口③口
①口口口

⑧口口⑧
口口口口
口⑦口口 |⑤⑥⑦-|
口⑤⑥⑦ |⑧---|
18
口③②口 |①---|
③④④② |②---|
①口①口 |③--④|
①②③⑤ |⑤---|
19
口④②② |①②--|
④⑤⑤口 |③---|
③口口③ |④--⑤|
①③④⑥ |⑥---|
20
口③②口 |①---|
③口④② |②---|
①④①口 |③--④|
①②③⑤ |⑤---|
21
⑨⑤④③ |①-②③|
口⑥口② |④⑤⑥⑦|
⑨⑦口口 |⑧---|
①④⑧⑨ |⑨---|
22
口口①口 |①---|
②口口① |②---|
口口②口
①②口口

③③⑥④
口④口口
口口口口 |③--④|
⑥口③⑤ |⑤-⑥-|
23
口口口口 |①②--|
③口②口 |③---|
①③口②
口口③口

口⑤⑤⑦
口口口④
口口口⑥ |④--⑤|
⑦④口④ |⑥-⑦-|
24
口口口口 |①-②-|
①③口口 |③---|
②③②口
口口①口

口口⑦口
⑦口④⑥
口口口口 |④--⑤|
⑤④⑤④ |⑥-⑦-|
25
①③口口 |①②--|
口口口口 |③---|
口②②口
口口口③

口口口口
⑤④⑤④
④⑥⑥⑤ |④--⑤|
口⑤④口 |--⑥-|
26
①口②① |①---|
口口口口 |②-③-|
②口口口
口③口口

⑥④口口
口口⑤口
口口口⑦ |④⑤--|
口口⑦口 |⑥-⑦-|
27
⑦⑤③① |①-②-|
④口口口 |③-④-|
⑤口②⑦ |⑤-⑥-|
④⑧⑥② |⑦-⑧-|
28
⑦⑤③① |①-②-|
口④④① |③-④-|
口②②⑥ |⑤-⑥-|
⑧口⑧⑥ |⑦-⑧-|
29
⑨⑨③① |①-②-|
②⑦②⑤ |③-④-|
⑧⑦⑥⑤ |⑤⑥⑦⑧|
⑧④⑥④ |⑨---|
30
口口口① |①-②-|
②④口口 |③-④-|
口口口口
④②③口

⑥口⑤⑦
口口口口
口口⑦⑤ |⑤-⑥-|
口⑧口口 |⑦-⑧-|
31
口口口口 |①-②-|
①口口④ |③-④-|
口口口口
②口口③

⑤⑩口⑨
⑧口⑦口
⑥口口口 |⑤-⑥-|
口口口口 |⑦⑧⑨⑩|
32
口口③口 |①-②-|
口口口口 |③---|
口②①③
①口口②

口口口⑤
④口口⑤
④口口口 |④-⑤-|
⑥口口⑥ |--⑥-|
33
③②①口 |①②③④|
⑥⑤④口 |⑤⑥⑦⑧|
口⑧⑦口
口口口口

⑲⑱⑰⑯
⑳口口⑮
⑨口口⑭ |⑨⑩⑪⑫|
⑫⑪⑩⑬ |⑬⑭⑮⑯⑰⑱⑲⑳|
34
口口口口 |①---|
口①①口 |----|
口口口口 |----|
⑤④③② |②③④⑤|
35
口①①① |①---|
②③②③ |--②-|
④②④② |--③-|
③④③④ |--④-|
36
口口①① |----|
口③①① |----|
②②③口 |①---|
②②口口 |②-③-|
37
①②⑤④ |----|
②③④③ |--①-|
③④③② |②-③-|
④⑤②① |④-⑤-|
38
口口口口 |----|
①口口口 |--①-|
口口口① |----|
口口口口 |----|
39
口②①口 |①---|
②①②① |--②-|
①②①②
口①②口

④口口③
口④口④
④口④口 |--③-|
③口口④ |--④-|
40
口口②② |----|
口口②口 |--①-|
④④口③ |②--③|
④①③③ |--④-|
41
①①口口 |①---|
②口口① |--②-|
口口口口 |----|
口口②② |----|
42
②口①① |①---|
②口口② |--②-|
口口口② |----|
①①口口 |----|
43
口①口② |①--②|
口①①口 |--③-|
①口①口
口口③①

口口④口
口⑤口口
口⑥口口 |-④--|
口口口口 |⑤-⑥-|
44
④②口口 |①--②|
口口口⑤ |--③-|
口口口⑥ |-④--|
③①口口 |⑤-⑥-|
45
口口④② |①--②|
口⑤口口 |--③-|
口⑥口口 |-④--|
口口③① |⑤-⑥-|
46
③②口③ |①--②|
口⑥⑤口 |--③-|
④口口④ |-④--|
口①口口 |⑤-⑥-|
47
②口⑥② |①---|
④口⑤口 |②--③|
⑥口口③ |④-⑤-|
①口口① |⑥---|
48
④口口③ |①-②-|
③口⑥⑦ |③-④⑤|
口②⑤口 |--⑥-|
口①①口 |⑦---|
49
②口⑥② |①---|
④口⑤口 |②--③|
⑥口口③ |④-⑤-|
口口口① |⑥---|
50
④⑥口③ |①-②-|
③⑦⑥⑦ |③-④⑤|
口②⑤口 |--⑥-|
口①①口 |⑦---|
51
⑦⑤③① |①-②-|
口口口口 |③-④-|
口口口口 |⑤-⑥-|
⑧⑥④② |⑦-⑧-|
52
口口口口 |①-②-|
⑦⑤③① |③-④-|
⑧⑥④② |⑤-⑥-|
口口口口 |⑦-⑧-|
53
⑦⑤③① |①②③④|
⑮⑬⑪⑨ |⑤⑥⑦⑧|
⑯⑭⑫⑩ |⑨⑩⑪⑫|
⑧⑥④② |⑬⑭⑮⑯|
54
⑦⑤③① |①②③④|
⑮⑬⑪⑨ |⑤⑥⑦⑧|
⑯⑭⑫⑩ |⑨⑩⑪⑫|
⑧⑥④② |⑬⑭⑮⑯|
55
口①②③ |①-②-③-|
口⑦⑧⑨ |④-⑤-⑥-|
⑫⑪⑩口 |⑦-⑧-⑨-|
⑥⑤④口 |⑩-⑪-⑫-|
56
①②③口 |①-②-③-|
⑦⑧⑨口 |④-⑤-⑥-|
口⑫⑪⑩ |⑦-⑧-⑨-|
口⑥⑤④ |⑩-⑪-⑫-|
57
①③②① |①-②-③-|
⑦⑨⑧⑦ |④-⑤-⑥-|
⑩⑪⑫⑩ |⑦-⑧-⑨-|
④⑤⑥④ |⑩-⑪-⑫-|
58
③①④② |①---②-|
口⑤⑤口 |--③---|
口⑤⑤口 |④---|
③①④② |⑤---|
59
口⑥④口 |①---|
②口口① |②---|
②口口① |③---④-|
⑤口口③ |⑤---⑥-|
60
⑥口⑤② |①---②-|
口口口口 |③---|
口口口口 |④---⑤-|
口③①④ |⑥---|
61
口④⑥口 |①---|
①口口② |②---|
①口口② |③---④-|
③口口⑤ |⑤---⑥-|
62
①口口口 |①-②-③-|
④①口⑥ |④-⑤-⑥-|
口④③⑤
口口②口

口⑩⑨口
口口⑧口
⑦口口口 |⑦-⑧-⑨-|
口⑦⑩口 |⑩---|
63
口口口① |①---|
②口口② |②---|
②口口②
①口口口

口⑥④口
口口口口
口口口口 |③---④-|
⑤口口③ |⑤---⑥-|
64
④口口② |①---②-|
口口口口 |③---④-|
口口口口
口③①口

口口口口
⑤口口口
⑥口口口 |⑤-⑥---|
口口⑦⑦ |⑦---|
65
口③②① |①-②-③-|
口③②① |④-⑤-⑥-|
④⑤⑥口
④⑤⑥口

⑦口口⑨
⑩口口⑧
口口口口 |⑦---⑧-|
口口口口 |⑨---⑩-|
66
口①①口 |①-②-③-|
口②②口 |④-⑤-⑥-|
⑥③③⑥
⑤④④⑤

⑦⑨⑧⑦
⑨口口⑧
口口口口 |⑦---⑧-|
口口口口 |--⑨---|
67
⑦口口口 |①-②-|
⑤口⑧⑦ |③-④-|
③④⑤⑥ |⑤-⑥-|
口③②① |⑦-⑧-|
68
⑦口⑧⑦ |①-②-|
⑤⑨口口 |③-④-|
③⑥⑤④ |⑤-⑥-|
①①②③ |⑦-⑧⑨|
69
口口口⑦ |①-②-|
⑧⑦口⑤ |③-④-|
④⑤⑥③ |⑤-⑥-|
①②③① |⑦-⑧-|
70
口口口口 |①-②-|
口口口口 |③-④-|
④③口③
口①②①

⑦⑦⑤⑤
⑧⑧⑥⑥
口口口口 |⑤⑥⑦⑧|
口⑨口⑨ |⑨---|
71
⑦⑧⑦口 |①-②-|
⑤④⑤⑥ |③-④-|
③①②③ |⑤-⑥-|
①口口口 |⑦-⑧-|
72
口⑦口⑦ |①-②-|
⑦口⑦⑤ |③-④-|
④⑤⑥③ |⑤-⑥-|
①②③① |⑦---|
73
②口②口 |①-②-|
口口口口 |③---|
口③口③
①①①口

口口口④
⑩口口④
口口⑨口 |④--⑤⑥⑦|
⑧⑦⑥⑤ |⑧⑨⑩-|
74
口②②口 |①--②|
口①①口 |--③-|
①口口①
口③③口

④口口④
⑤口口⑤
⑥口口⑥ |-④⑤⑥|
⑦口口⑦ |⑦---|
75
口①口口 |①---|
口①①口 |----|
口口口口 |----|
口口口口 |----|

accuracy: 100%
最終更新:2022年03月26日 03:20