アットウィキロゴ
The Kingsroad
RINZO

BASIC

Level: 3
BPM: 150
Notes: 166

1
口口口口 |----|
口口口口 |----|
口口口口 |----|
口口口口 |----|
2
口①①口 |①---|
口口口口 |----|
口口口口 |----|
口口口口 |----|
3
口口口口 |----|
口口口口 |----|
口口口口 |----|
口口口口 |----|
4
口口口口 |①---|
口①①口 |----|
口口口口 |----|
口口口口 |----|
5
口口口口 |①---|
口口口口 |----|
口①①口 |----|
口口口口 |----|
6
口①①口 |①---|
口口口口 |----|
口口口口 |----|
口口口口 |----|
7
口口口口 |----|
口口口口 |----|
口口口口 |----|
口口口口 |----|
8
口口口口 |①---|
口①①口 |----|
口口口口 |----|
口口口口 |----|
9
口口口口 |①---|
口口口口 |----|
口①①口 |----|
口口口口 |----|
10
口口口口 |①---|
①口口① |----|
口口口口 |----|
口口口口 |----|
11
①口口① |①---|
口口口口 |----|
口口口口 |----|
口口口口 |----|
12
口口口口 |①---|
①口口① |----|
口口口口 |----|
口口口口 |----|
13
①口口① |①---|
口口口口 |----|
口口口口 |----|
口口口口 |----|
14
口②①口 |①---|
口口口口 |----|
口口口口 |②---|
口口口口 |----|
15
口口口口 |①---|
口②①口 |----|
口口口口 |②---|
口口口口 |----|
16
口口口口 |①---|
口口口口 |----|
口②①口 |②---|
口口口口 |----|
17
口口口口 |①---|
口口口口 |----|
口口口口 |②---|
口②①口 |----|
18
口口口口 |①---|
口口口口 |----|
口口②① |②---|
口口口口 |----|
19
口口口口 |①---|
口口口口 |----|
②①口口 |②---|
口口口口 |----|
20
口口口口 |①---|
口①①口 |----|
口口口口 |----|
口口口口 |----|
21
口口口口 |①---|
①口口① |----|
②口口② |②---|
口口口口 |----|
22
口口口① |①---|
口口②口 |----|
口口口口 |②---|
口口口口 |----|
23
口口口口 |①---|
口口口口 |----|
口①口口 |②---|
②口口口 |----|
24
①口口口 |①---|
口②口口 |----|
口口口口 |②---|
口口口口 |----|
25
口口口口 |①---|
口口口口 |----|
口口①口 |②---|
口口口② |----|
26
口口口① |①---|
口口②口 |----|
口口口口 |②---|
口口口口 |----|
27
口口口口 |①---|
口口口口 |----|
口①口口 |②---|
②口口口 |----|
28
①口口口 |①---|
口②口口 |----|
口口口口 |②---|
口口口口 |----|
29
口口口口 |①---|
口②③口 |----|
口口①口 |②---|
口口口口 |③---|
30
口①口② |①---|
口口口口 |----|
口口口口 |②---|
口口口口 |----|
31
口口口口 |①---|
口①口② |----|
口口口口 |②---|
口口口口 |----|
32
口口①口 |①---|
口口②口 |----|
口口口口 |②---|
口口口口 |----|
33
口口口口 |①---|
口口口口 |----|
口口①口 |②---|
口③②口 |③---|
34
口口口口 |①---|
①口②口 |----|
口口口口 |②---|
口口口口 |----|
35
口口口口 |①---|
口口口口 |----|
①口②口 |②---|
口口口口 |----|
36
口口口口 |①---|
口口口口 |----|
口口口口 |②---|
①口②口 |----|
37
口口口口 |①---|
②口口② |----|
①③③① |②---|
口口口口 |③---|
38
口口口口 |①---|
口①②口 |②---|
口④③口 |③---|
口口口口 |④---|
39
口口口口 |①---|
口①②口 |②---|
口④③口 |③---|
口口口口 |④---|
40
①②③④ |①---|
口口口口 |②---|
口口口口 |③---|
口口口口 |④---|
41
口口口口 |①---|
口口口① |②---|
口口口② |③---|
口口④③ |④---|
42
口口口口 |----|
口①口口 |①---|
口②③口 |②---|
口口口口 |③---|
43
口口口口 |①---|
口②①口 |②---|
口③④口 |③---|
口口口口 |④---|
44
口口口口 |①---|
②②①① |----|
口口口口 |②---|
口口口口 |----|
45
口②①口 |①---|
口口口口 |----|
口口口口 |②---|
口口口口 |----|
46
口口口口 |①---|
口口口① |----|
口口②口 |②---|
口口口口 |----|
47
口口口口 |①---|
口口口口 |----|
②②口口 |②---|
口①口口 |----|
48
口口口口 |①---|
①口口口 |----|
口②口口 |②---|
口口口口 |----|
49
口口口口 |①---|
口口口口 |----|
口口②② |②---|
口口①口 |----|
50
口口口口 |①---|
口口口① |----|
口口②口 |②---|
口口口口 |----|
51
口口口口 |①---|
口口口口 |----|
②②口口 |②---|
口①口口 |----|
52
口口口口 |①---|
①口口口 |----|
口②口口 |②---|
口口口口 |----|
53
口口①口 |①---|
口②口口 |②---|
口口③口 |③---|
口④口口 |④---|
54
口口口口 |①---|
①①②② |②---|
③③④④ |③---|
口口口口 |④---|
55
口口口口 |①---|
①①②② |②---|
③③④④ |③---|
口口口口 |④---|
56
口口口口 |①---|
①①②② |②---|
③③④④ |③---|
口口口口 |④---|
57
口④④口 |①---|
①①②② |②---|
口③③口 |③---|
口口口口 |④---|
58
口口口口 |①---|
①口口② |----|
口口口口 |②---|
口口口口 |----|
59
口①①口 |①---|
口②②口 |②---|
口③③口 |③---|
口口口口 |----|

accuracy: 100%
最終更新:2022年04月21日 02:59