アットウィキロゴ
The Kingsroad
RINZO

ADVANCED

Level: 7
BPM: 150
Notes: 459

1
口口口口 |----|
口口口口 |----|
口口口口 |----|
口口口口 |----|
2
②①①① |①---|
口口口口 |----|
口口口口 |②---|
口口口口 |----|
3
口口口口 |①---|
②①①① |----|
口口口口 |②---|
口口口口 |----|
4
口口口口 |①---|
口口口口 |----|
②①①① |②---|
口口口口 |----|
5
口口口口 |①---|
口口口口 |----|
口口口口 |②---|
②①①① |----|
6
口口口② |①---|
①①①① |----|
口口口口 |②---|
口口口口 |----|
7
口口口口 |①---|
①①①② |----|
口口口口 |②---|
口口口口 |----|
8
口口口口 |①---|
口口口口 |----|
①①①② |②---|
口口口口 |----|
9
口口口口 |①---|
口口口口 |----|
口口口口 |②---|
①①①② |----|
10
口④②口 |①---|
①口口① |②---|
①③口① |③---|
口口口口 |④---|
11
口④③口 |①---|
②⑥⑤口 |②---|
口口①口 |③-④-|
口口口口 |⑤-⑥-|
12
口④②口 |①---|
①口口① |②---|
①③口① |③---|
口口口口 |④---|
13
口口口口 |①---|
②⑤④③ |②---|
口口①口 |③-④-|
口口口口 |⑤---|
14
①①口口 |①-②-|
口口口口 |③-④-|
口口③口
口④口②

口⑦⑤⑤
⑥口⑧口
口口口口 |⑤-⑥-|
口口口口 |⑦-⑧-|
15
⑧口口④ |①-②-|
口③⑦口 |③-④-|
①①⑤⑤ |⑤-⑥-|
口⑥②口 |⑦-⑧-|
16
口口口口 |①---|
①①③③ |②---|
口口口口 |③---|
④④②② |④---|
17
口③口口 |①---|
④口②⑤ |②-③-|
口①①⑤ |④---|
口口口口 |⑤---|
18
口口①① |①-②-|
口口口口 |③-④-|
口③口口
②口④口

⑤⑤⑦口
口⑧口⑥
口口口口 |⑤-⑥-|
口口口口 |⑦-⑧-|
19
④口口⑧ |①-②-|
口⑦③口 |③-④-|
⑤⑤①① |⑤-⑥-|
口②⑥口 |⑦-⑧-|
20
口①①口 |①--②|
③口口③ |--③-|
口②②口
口口口口

④⑤⑥口
口口口口
口口口口 |--④-|
口口口口 |⑤-⑥-|
21
口口口① |①---|
③口⑤口 |②---|
口④口口 |③-④-|
口②②口 |⑤---|
22
口口①口 |①---|
口②口① |②-③-|
⑤口⑤口 |④---|
口④口③ |⑤---|
23
口①口口 |①---|
①口②口 |②-③-|
口⑤口⑤ |④---|
③口④口 |⑤---|
24
口口①口 |①---|
口②口① |②-③-|
口⑤口⑤ |④---|
口④口③ |⑤---|
25
口⑤①口 |①-②-|
口②⑥口 |③-④-|
口⑦③口 |⑤-⑥-|
口④⑧口 |⑦-⑧-|
26
口口②口 |①---|
①①口口 |②-③-|
③口口口
口口口口

口口口口
⑤口口口
口⑤④口 |④---|
口口口口 |⑤---|
27
口②口口 |①---|
口口①① |②-③-|
口口口③
口口口口

口口口口
口口口⑤
口④⑤口 |④---|
口口口口 |⑤---|
28
口口②口 |①---|
①①口口 |②-③-|
③口口口
口口口口

口口口口
⑤口口口
口⑤④口 |④---|
口口口口 |⑤---|
29
口①口① |①---|
⑥④④⑥ |②-③-|
口口③口 |④-⑤-|
⑤②口⑤ |⑥---|
30
①口②③ |①---|
口口④口 |②---|
口⑤口口 |③-④-|
⑥口口口 |⑤-⑥-|
31
口⑤口口 |①-②-|
①②口⑥ |③-④-|
⑤⑦③④ |⑤--⑥|
口口⑦口 |--⑦-|
32
口口④④ |①--②|
③口①口 |--③-|
口口⑤⑤ |④---|
口②口口 |⑤---|
33
①④④口 |①---|
口口口② |②-③-|
口⑤⑤口 |④---|
口口③口 |⑤---|
34
口口③① |①---|
②口口③ |②---|
④⑤口口 |③---|
口口口口 |④-⑤-|
35
①⑤口口 |①-②-|
口②⑥口 |③-④-|
口⑦③口 |⑤-⑥-|
口口⑧④ |⑦-⑧-|
36
口口口口 |①---|
①①④④ |②---|
③③②② |③---|
口口口口 |④---|
37
①③③① |①---|
口④④口 |②---|
②口口② |③---|
口④④口 |④---|
38
①③口① |①-②-|
口口口口 |③-④-|
④口②口
口口口口

口口⑤⑥
口⑤口口
口⑥口口 |⑤---|
口口⑦口 |⑥-⑦-|
39
口②口口 |①---|
①口③① |②-③-|
口口口②
口口口口

口口⑤口
口⑥口⑦
④口口口 |④-⑤-|
口口⑥④ |⑥-⑦-|
40
口④口② |①-②-|
口口③口 |③-④-|
口口①口
③①口口

口口口口
⑥口口⑥
⑤口⑦⑤ |⑤---|
口口口口 |⑥-⑦-|
41
①②口① |①---|
口口②口 |②-③-|
口口口口
口③口口

⑤口④⑤
口④口口
口口口口 |④---|
口口口口 |⑤---|
42
⑤④②⑥ |①---|
口口口③ |②-③-|
口②⑤口 |④---|
①口口① |⑤-⑥-|
43
口口②口 |①---|
①③①口 |②-③-|
②口口口
口口口口

口口口口
⑦口⑥④
口口⑤口 |④-⑤-|
④⑥口口 |⑥-⑦-|
44
口②口口 |①-②-|
口口口口 |③-④-|
①④口口
口口①③

⑤口口口
口⑥口⑦
⑦口口⑤ |⑤-⑥-|
口口口口 |⑦---|
45
口口③① |①-②-|
②口口口 |③-④-|
口③口④
口①口口

⑦⑤口⑦
口⑥⑥口
口口⑤口 |⑤-⑥-|
口口口口 |⑦---|
46
口口①口 |①---|
⑦口⑤口 |②-③-|
②⑥口④ |④-⑤-|
③口口口 |⑥-⑦-|
47
口⑦①⑤ |①-②-|
口④口② |③-④-|
口⑥③⑧ |⑤-⑥-|
口口口口 |⑦-⑧-|
48
口口口口 |①---|
①⑤①口 |②-③-|
④口⑥口 |④-⑤-|
口口③② |⑥---|
49
口①口口 |①-②-|
⑤⑤②口 |③-④-|
口③口口 |⑤---|
⑥⑥④口 |⑥---|
50
口口①口 |①---|
②口口① |②-③-|
口③口口
口口口口

口⑤口口
口口④⑥
口口⑥口 |④-⑤-|
口口口口 |⑥---|
51
④口口⑤ |①-②-|
口③⑥口 |③-④-|
②口口⑦ |⑤-⑥-|
口①⑧口 |⑦-⑧-|
52
④①口口 |①---|
①口⑤② |②-③-|
⑥口③口 |④-⑤-|
口口口口 |⑥---|
53
⑦①②⑦ |①-②-|
口③④口 |③-④-|
口⑤⑥口 |⑤-⑥-|
口口口口 |⑦---|
54
口④口口 |①-②-|
①①③③ |③-④-|
⑤⑤⑥⑥ |⑤---|
口⑦②口 |⑥-⑦-|
55
③口⑤口 |①---|
①①②② |②-③-|
④④⑥⑥ |④-⑤-|
⑦口口口 |⑥-⑦-|
56
口④口口 |①-②-|
①①③③ |③-④-|
⑤⑤⑥⑥ |⑤---|
口⑦②口 |⑥-⑦-|
57
③⑥⑥口 |①---|
①①②② |②-③-|
⑤④④⑤ |④-⑤-|
口口口口 |⑥---|
58
④口口⑥ |①-②-|
①①①② |③-④-|
⑦⑤⑤⑤ |⑤-⑥-|
口③口⑧ |⑦-⑧-|
59
口①①④ |①-②-|
⑤⑤⑤⑤ |③-④-|
口口口口 |⑤---|
②③③口 |----|

accuracy: 100%
最終更新:2022年04月21日 03:15