アットウィキロゴ
The Kingsroad
RINZO

EXTREME

Level: 9.5
BPM: 150
Notes: 729

1
口口口口 |----|
口口口口 |----|
口口口口 |----|
口口口口 |----|
2
①①①② |①---|
口口③口 |②---|
口④口口 |③---|
口口口口 |④---|
3
口口口口 |①---|
口②口口 |②---|
口口③口 |③---|
①口口④ |④---|
4
①口口口 |①---|
①口②口 |②---|
①③口口 |③---|
④口口口 |④---|
5
口④④① |①---|
口②口① |②---|
口口口① |③---|
口③③口 |④---|
6
口口口② |①---|
口口③口 |②---|
①④口① |③---|
口口口口 |④---|
7
口口口口 |①---|
口②口口 |②---|
口③③③ |③---|
①口口④ |④---|
8
①①①口 |①---|
口口②口 |②---|
口③口口 |③---|
④④④口 |④---|
9
③口口口 |①---|
③②④① |②---|
③④②① |③---|
口口口① |④---|
10
④⑤⑧口 |①-②-|
⑨①口① |③-④⑤|
⑥⑦③⑧ |-⑥⑦-|
口②⑨② |⑧-⑨-|
11
④⑤口口 |①-②-|
口①口① |③-④⑤|
口口③口
口②口②

口口⑦⑦
口⑨口口
⑨⑥口⑧ |⑥-⑦-|
口口口口 |⑧-⑨-|
12
口口⑤④ |①-②-|
①口①口 |③-④⑤|
口③口口
②口②口

口⑧口口
口口口⑨
⑧口⑦⑥ |-⑥⑦-|
口口⑨口 |⑧-⑨-|
13
②口⑥③ |①-②-|
⑤⑦④口 |③-④⑤|
口①⑧③ |⑥⑦⑧⑨|
⑩⑨口⑩ |⑩---|
14
⑩②⑨① |①②③④|
⑥⑭⑤⑬ |⑤⑥⑦⑧|
⑫④⑪③ |⑨⑩⑪⑫|
⑧⑯⑦⑮ |⑬⑭⑮⑯|
15
⑩②⑨① |①②③④|
⑥⑭⑤⑬ |⑤⑥⑦⑧|
⑫④⑪③ |⑨⑩⑪⑫|
⑧⑯⑦⑮ |⑬⑭⑮⑯|
16
⑧⑦⑥⑤ |①②③④|
④⑪②⑨ |⑤⑥⑦⑧|
⑫③⑩① |⑨⑩⑪⑫|
⑯⑮⑭⑬ |⑬⑭⑮⑯|
17
⑥②⑤① |①②③④|
口⑨⑨口 |⑤⑥⑦⑧|
⑧④⑦③ |⑨---|
口口⑩⑩ |⑩---|
18
①⑨②⑩ |①②③④|
⑬⑤⑭⑥ |⑤⑥⑦⑧|
③⑪④⑫ |⑨⑩⑪⑫|
⑮⑦⑯⑧ |⑬⑭⑮⑯|
19
①⑨②⑩ |①②③④|
⑬⑤⑭⑥ |⑤⑥⑦⑧|
③⑪④⑫ |⑨⑩⑪⑫|
⑮⑦⑯⑧ |⑬⑭⑮⑯|
20
口口①④ |①--②|
⑧②⑤① |--③-|
③⑥②口 |--④⑤|
⑦③⑨口 |⑥⑦⑧⑨|
21
口①①口 |①---|
口②口② |②-③-|
口口口口
口③口③

口⑧⑧口
口口口口
④⑤⑥⑦ |④⑤⑥⑦|
口口口口 |⑧---|
22
⑧⑥⑦口 |①-②-|
⑧①⑨③ |③-④⑤|
④⑤⑨口 |-⑥⑦-|
口口②口 |⑧-⑨-|
23
口口口口 |①-②-|
口①口③ |③-④⑤|
④⑤口口
口口②口

⑧⑥⑦口
⑧口口口
口口口口 |-⑥⑦-|
口⑨⑨口 |⑧-⑨-|
24
口⑦⑥口 |①-②-|
⑨口⑧① |③-④⑤|
口②⑤④ |-⑥⑦-|
⑨口⑧③ |⑧-⑨-|
25
⑩⑧⑨⑦ |①②③④|
⑫⑥⑪⑤ |⑤⑥⑦⑧|
⑭④⑬③ |⑨⑩⑪⑫|
⑯②⑮① |⑬⑭⑮⑯|
26
⑧⑧④口 |①-②-|
⑥口⑤① |③-④⑤|
⑦②⑨⑨ |-⑥⑦-|
口口口③ |⑧-⑨-|
27
口口④口 |①-②-|
口口⑤① |③-④⑤|
口②口口
口口口③

⑧⑧口⑨
⑥口口⑨
⑦口口口 |-⑥⑦-|
口口口口 |⑧-⑨-|
28
口⑧口⑧ |①-②-|
⑥②④口 |③-④⑤|
⑦⑨⑤⑨ |-⑥⑦-|
①口③口 |⑧-⑨-|
29
①口口口 |①---|
口①口② |②-③-|
口口口口
口口③口

口口④⑤
口⑥⑥口
④⑤口口 |④-⑤-|
口口口口 |⑥---|
30
口口②口 |①---|
口口口② |②---|
口口口口
①①口口

口口口口
口口口口
③④⑤⑥ |③④⑤⑥|
⑦⑧⑨⑩ |⑦⑧⑨⑩|
31
①⑤⑥② |①②③④|
⑦③④⑧ |⑤⑥⑦⑧|
口口口口
口口口口

口口口口
口⑪口口
⑩⑨⑩⑨ |⑨--⑩|
口⑪口口 |--⑪-|
32
口①④④ |①--②|
③口②口 |③-④-|
口⑤口② |⑤---|
⑥口①① |⑥---|
33
④②②④ |①---|
口①⑤① |②-③-|
口③③⑤ |④-⑤-|
⑥⑥①口 |⑥---|
34
口口①口 |①---|
①①口① |②---|
②②口口
口口口口

口口口③
④口口④
口口口口 |③---|
⑤口口⑤ |④-⑤-|
35
⑧口口⑤ |①②③④|
口②①口 |⑤⑥⑦⑧|
口④③口
口⑥⑦口

口口口口
⑯口口⑬
⑩⑮⑭⑨ |⑨⑩⑪⑫|
⑫口口⑪ |⑬⑭⑮⑯|
36
口⑫⑪① |①-②③|
⑩②③⑦ |④-⑤⑥|
④⑧⑨口 |⑦-⑧⑨|
口⑥⑤口 |⑩-⑪⑫|
37
⑤口口① |①②③④|
口②③④ |⑤⑥⑦⑧|
⑤口口①
口⑥⑦⑧

口口⑩⑩
⑨口口口
口⑨⑪⑪ |⑨--⑩|
口口口口 |⑪---|
38
③①口口 |①-②-|
③口②口 |③-④-|
①③口口
①口④口

口⑥口⑥
口⑤口⑥
口口⑦⑤ |⑤---|
口⑤口⑤ |⑥-⑦-|
39
②口⑤⑥ |①---|
②⑥①⑥ |②-③-|
①④⑦④ |④-⑤-|
①②③④ |⑥-⑦-|
40
③①口口 |①-②-|
③口②口 |③-④-|
①③口口
①口④口

口⑥口⑥
口⑤口⑥
口口⑦⑤ |⑤---|
口⑤口⑤ |⑥-⑦-|
41
②⑤⑥⑦ |①---|
②⑦①④ |②-③-|
①⑦口④ |④-⑤⑥|
①②③口 |⑦---|
42
口口③口 |①---|
①口①口 |②-③-|
②口②口
②①口①

口④口④
口口⑥④
口④口⑤ |④---|
口⑤口⑤ |⑤-⑥-|
43
①②③④ |①---|
①④⑦④ |②-③-|
②⑥①⑥ |④-⑤-|
②口⑤⑥ |⑥-⑦-|
44
①⑦④⑤ |①-②-|
①口口⑤ |③-④-|
③⑤②⑦ |⑤-⑥-|
③①⑥⑦ |⑦---|
45
①口④口 |①-②-|
①③口口 |③-④-|
③口②口
③①口口

口⑤口口
⑨口⑥⑨
口⑦口口 |⑤⑥⑦⑧|
口口⑧口 |⑨---|
46
②口④① |①---|
口③⑧⑧ |②③④-|
⑤口⑦① |⑤⑥⑦-|
口⑥⑨⑨ |⑧-⑨-|
47
①口③口 |①②③-|
口②口口 |④-⑤-|
口④⑤④
口口口口

口⑦口⑧
⑦口⑧⑨
⑥口口⑩ |⑥-⑦-|
口⑥口口 |⑧-⑨⑩|
48
②口②口 |①---|
⑨⑤④口 |②-③-|
③⑦⑥口 |④⑤⑥⑦|
①③⑧① |⑧-⑨-|
49
④③②① |①②③④|
口⑦⑤⑦ |⑤-⑥-|
⑥口口⑤ |⑦---|
⑧⑥⑧口 |⑧---|
50
①④口② |①---|
①口③口 |②③④-|
口口口口
口口口口

⑨口⑨口
口⑤口口
口⑧口⑥ |⑤-⑥⑦|
口⑤⑦口 |⑧-⑨-|
51
口③口② |①-②-|
③口②口 |③-④-|
④口①口
口④口①

⑧口⑦口
⑩⑤⑨⑤
口口口口 |⑤-⑥-|
⑥口⑥口 |⑦⑧⑨⑩|
52
⑥③⑥① |①②③-|
⑧口⑧⑤ |④-⑤-|
④④②⑤ |⑥-⑦-|
⑦⑧⑦口 |⑧---|
53
口②口① |①②③④|
⑫⑥⑩⑤ |⑤⑥⑦⑧|
④⑪③⑨ |⑨⑩⑪⑫|
⑧⑬⑦⑬ |⑬---|
54
①①③③ |①-②-|
口③口① |③-④-|
④口②口
口口口口

口口口口
⑤口⑤⑥
口⑦口口 |⑤---|
⑤⑤⑥⑥ |⑥-⑦-|
55
①①②② |①---|
②④⑥口 |②-③-|
③⑦①⑤ |④-⑤-|
④④⑥⑥ |⑥-⑦-|
56
①①③③ |①-②-|
口③口① |③-④-|
④口②口
口口口口

口口口口
⑤口⑤⑥
口⑦口口 |⑤---|
⑤⑤⑥⑥ |⑥-⑦-|
57
①①②② |①---|
②口口口 |②-③-|
③口①口
口口口口

口口口口
口⑥④⑧
口口⑧⑧ |④⑤⑥⑦|
口⑦⑤口 |⑧---|
58
①①口⑧ |①-②-|
⑫⑪⑤⑥ |③④⑤⑥|
③④⑩⑨ |⑦-⑧-|
⑦⑦口② |⑨⑩⑪⑫|
59
⑨⑨①⑧ |①②③④|
口口⑦③ |⑤⑥⑦⑧|
②⑥⑨⑨ |⑨---|
⑤口④口 |----|

accuracy: 100%
最終更新:2022年04月21日 03:28