sola [ 2 ]
小野秀幸
EXTREME
Level: 10.4
BPM: 135
Notes(
hold): 594(98)
 
1
口口口口 |----|
口口口口 |----|
口口口口 |----|
口口口口 |----|
2
口口口口 |----|
口口口口 |----|
口口口口 |----|
口口口口 |----|
3
口口口口 |----|
口口口口 |----|
口口口口 |----|
口口口口 |----|
4
口口口口 |----|
口口口口 |----|
口口口口 |----|
口口口口 |----|
5
⑤<口④ |----|
口口③口 |①②③④|
口②口口 |⑤--⑥|
①口口口 |--⑦-|
⑥口口口
口口口口
口口口口
口口>⑥
口口口口
口口口口
⑦口口口
口口口⑦
6
口口口口 |①--②|
口口口① |③④⑤⑥|
口口口∧ |⑦--⑧|
口口口口 |--⑨-|
⑦<口⑥
口口⑤②
口④②口
③口∧口
⑧口口口
⑧口口
口口口口
口口口口
口口口口
口⑨口口
⑨口⑨口
口口口口
7
⑥口①⑤ |①---|
∧口④口 |②③④⑤|
口③口口 |⑥--⑦|
②口口口 |--⑧-|
⑦口口口
口口口口
口口口口
口口>⑦
口口口口
口⑧口口
口口口口
口口口⑧
8
口口口口 |①--②|
口口口① |③④⑤⑥|
口口口∧ |⑦--⑧|
口口口口 |--⑨-|
口>⑦⑥
V口⑤②
②④口口
③口口口
口口⑧口
口口口口
口V口口
口⑧口口
口口口口
口口口口
⑨口口⑨
口⑨口口
9
⑥口口⑤ |①---|
∧口④口 |②③④⑤|
口③①口 |⑥--⑦|
②口口口 |--⑧-|
⑦口口口
口口口口
口口口口
口口>⑦
口口口口
口口口口
⑧口口口
口口口⑧
10
口口口口 |①--②|
口口口① |③④⑤⑥|
口口口∧ |⑦--⑧|
口口口口 |--⑨-|
⑦<口⑥
口口⑤②
口④②口
③口∧口
⑧口口口
⑧口口
口口口口
口口口口
口口口口
口⑨口口
⑨口⑨口
口口口口
11
⑥口①⑤ |①---|
∧口④口 |②③④⑤|
口③口口 |⑥--⑦|
②口口口 |--⑧-|
⑦口口口
口口口口
口口口口
口口>⑦
口口口口
口⑧口口
口口口口
口口口⑧
12
口口口口 |①--②|
口口口① |③④⑤⑥|
口口口∧ |⑦--⑧|
口口口口 |--⑨-|
口>⑦⑥
V口⑤②
②④口口
③口口口
口口⑧口
口口口口
口V口口
口⑧口口
口口口口
口口口口
⑨口口⑨
口⑨口口
13
②V口③ |①---|
②口④③ |②--③|
口①①口 |-④-⑤|
口⑤口口 |--⑥-|
口⑥⑥口
口口口口
口⑥口口
口口口口
14
②口口③ |①--②|
口②③口 |--③-|
口口①口 |----|
口④<① |④---|
15
②⑥③口 |①---|
口④口① |②--③|
②口③口 |-④-⑤|
口①⑤∧ |--⑥-|
16
③口口② |①--②|
口③②① |--③-|
口①口口 |----|
①>④口 |④---|
17
口③⑥② |①---|
①口④口 |②--③|
口③口② |-④-⑤|
∧⑤①口 |--⑥-|
18
②口口③ |①--②|
①②③口 |--③-|
口口①口 |----|
口口口① |④---|
口口口口
口口口口
口口口口
④口口④
19
口①口口 |①---|
口∧口口 |--②-|
口口V口 |③---|
口口①口 |--④⑤|
口②口V
V口口③
③口口口
口口②口
口口口口
口④口④
④口⑤口
口口口口
20
②口②口 |①-②-|
口口口口 |③-④-|
口口口③ |⑤⑥⑦⑧|
口口>① |⑨⑩⑪⑫|
口④口④
⑩⑧⑤⑨
口⑥⑦口
口⑫⑪④
21
口口口口 |①---|
口口口口 |----|
①口口< |②③-④|
口口口口 |-⑤-⑥|
②③口口
口口④口
②>口⑥
口⑤口口
22
口口③② |----|
口④口口 |①---|
⑥口<① |②③-④|
口口⑤口 |-⑤-⑥|
23
②③口⑥ |----|
口口④口 |①---|
①口口口 |②③-④|
口⑤口∧ |-⑤-⑥|
24
①口③② |--①-|
口口口口 |②-③-|
①口③口 |④-⑤-|
②口<口 |⑥-⑦-|
口口口口
⑤口⑤V
口口口口
④口口④
⑥口<口
口口口口
口口口口
口⑦⑦⑥
25
①口口① |①---|
口口口口 |②---|
口口口∧ |③④-⑤|
口口口口 |-⑥-⑦|
口⑥口②
口>口⑦
口口⑤口
③④口口
26
口口⑤口 |----|
⑥口<① |①---|
口④口口 |②③-④|
口口③② |-⑤-⑥|
27
④⑤④⑤ |----|
①口口口 |①---|
口④⑤口 |②③-④|
口③②口 |-⑤--|
28
②口口口 |-①--|
③②口口 |--②-③-|
④③⑦⑥ |④⑤⑥⑦|
①④⑤① |⑧⑨⑩⑪|
⑪⑩⑨⑧
口口口口
口口口口
口口口口
29
口口口口 |①-②-|
口口①口 |----|
口口口口 |----|
②口口< |④---|
口口口口
口口口口
口口口口
④口口口
30
口①<口 |--①-|
①<口口 |-②--|
口口口口 |③-④-|
口口口口 |⑤-⑥-|
口②口口
②>②口
口口>②
口口口口
口口口口
口口③口
V口口③
③口口口
口口口口
口口口口
口V口口
④④口口
口口>⑤
口口口口
口口口口
口⑤口口
口口口⑥
口口>⑥
口口口口
口口口口
31
①<口口 |①--②|
口口口① |----|
口口口口 |----|
口口口口 |③④-⑤|
②口口口
口口口口
口口口口
口口②
⑤口口口
口口口口
口口口④
口口口③
32
口④口① |①②③④|
③⑧②⑤ |⑤⑥⑦⑧|
⑦口⑥口 |⑨⑩⑪⑫|
⑫⑪⑩⑨ |⑬⑭⑮⑯|
⑬⑭⑮⑯
口口口口
口口口口
口口口口
33
⑧⑨⑩⑪ |①②-③|
⑦⑥③口 |-④-⑤|
②④③① |--⑥⑦|
口④⑤⑤ |⑧⑨⑩⑪|
34
口口口口 |①--②|
口口口① |--③-|
口口口口 |④--⑤|
口口口∧ |---⑥ |
口口口口
口口②②
口口口口
口口∧口
口口口口
口V③口
口口口口
③④口口
口口口口
口口V口
口口口口
口⑤⑤口
口口口口
⑥口口口
∧口口口
口口⑥口
35
口口口口 |----|
①口口口 |①-②-|
口>口② |----|
口口口口 |--③-|
口口口口
口口口口
口口口③
口口口口
36
口口口口 |①---|
V口口口 |②-③-|
口口口口 |④--⑤|
①口口口 |---⑥|
口③②口
口口口④
口口口∧
②口口口
口口口口
口口口⑤
口口口口
口⑤<口
口口口口
口口口口
口口口口
口⑥口⑥
37
口口① |①②③④|
①②③口 |⑤--⑥|
口④⑤< |-⑦-⑧|
口口口口 |⑨⑩⑪⑫|
口口口口
⑩⑫⑪⑨
⑧口⑥口
⑥口⑦口
38
口口口① |①②③④|
口口口口 |⑤-⑥-|
口口口① |⑦⑧⑨⑩|
口口口口 |⑪⑫⑬⑭|
④口⑨⑩
口口⑧⑦
⑥口③口
⑥②⑤⑤
⑭⑬口口
⑪⑫口口
口口口口
口口口口
39
口口口口 |①-②-|
口口口口 |--③④|
口口口口 |⑤⑥⑦⑧|
口>①口 |⑨⑩⑪⑫|
⑪⑫⑦⑧
⑤⑥口③
口⑩口④
口⑨②口
40
⑤口口⑤ |①-②-|
口口口② |③④--|
③口①口 |⑤---|
④口②① |-⑥⑦-|
口口口口
口口口⑥
口口口⑦
口口口口
41
口①口③ |①-②-|
口②口口 |③---|
①⑥③④ |-④⑤-|
⑥口②⑤ |⑥-⑦-|
口口口⑦
口口⑦口
口口口口
口口口口
42
③②①口 |①②③④⑤-|
④口口口 |----|
⑤口口口 |--⑥-|
口口口口 |--⑦-|
口>口⑥
口口口口
口口口口
口口口口
口口口⑦
口口口⑦
口口口口
口口口口
43
口口口口 |①-②-③-④--⑤--|
口口口口 |⑥-⑦-|
口⑤>⑥ |⑧-⑨-|
①②③④ |⑩-⑪-|
口口口口
⑦口⑧<
口口口⑦
口口口口
⑪⑨口⑩
口口⑨口
口口口口
口口口口
44
⑤口④口 |①②③④|
⑥口口④ |----|
⑦③∧口 |⑤⑥⑦⑧----|
⑧①②∧ |--⑨-|
口口⑨口
口口口⑨
口口口口
口口口口
45
口V口口 |①---|
口口口口 |----|
口①口口 |②③-④|
口口口口 |-⑤-⑥|
⑤口口口
口口⑥
④②口口
口③②口
46
口口口⑤ |----|
口口口① |①---|
口口口④ |②③-④|
口②③口 |-⑤-⑥|
口口口口
⑥口口<
口口口口
口口口口
47
⑤口口⑥ |----|
①口口∧ |①---|
④口口V |②③-④|
口③②⑥ |-⑤-⑥|
48
口①口① |----|
口∧口口 |①---|
口V口口 |②---|
口①口① |③---|
口②②口
口口∧口
口口V口
口②②口
③口③口
∧口口口
V口口口
③口③口
49
①口口口 |①---|
口①口< |----|
口口口口 |②③-④|
①口口口 |-⑤-⑥|
口口口⑤
口②口口
口口口④
口②③口
口口口口
⑥口口<
口口口口
口口口口
50
⑤口口口 |----|
①口口口 |①---|
④口口口 |②③-④|
口③②口 |-⑤-⑥|
口口口口
口口⑥
口口口口
口口口口
51
④口②③ |----|
口⑤⑤① |①---|
口⑤⑤口 |②③-④|
③②口④ |-⑤--|
52
④③②① |----|
口口口口 |①②③④⑤⑥⑦⑧|
口口口口
⑤⑥⑦⑧
53
口口口口 |①---|
①口口② |②---|
①口口< |③④-⑤|
口口口口 |⑥⑦-⑧|
③口④③
口⑤口口
③>口⑧
口⑦口⑥
54
③④口③ |①---|
①口⑤② |②---|
⑧口<② |③④-⑤|
⑥口⑦口 |⑥⑦-⑧|
55
口口⑤口 |①---|
①口口② |②---|
②⑥口口 |③④-⑤|
③④④③ |-⑥-⑦|
口口口⑦
⑦口口口
口口口口
口口口∧
56
①口③② |--①-|
口②口口 |②-③-|
①口③口 |④-⑤-|
②口<口 |⑥-⑦-|
口口口口
⑤口⑤V
口④口口
④口口④
⑥口<口
口口口口
⑥口口口
口⑦⑦⑥
57
①口口① |①---|
口口口口 |②---|
口口口∧ |③④-⑤|
口口口口 |-⑥-⑦|
口④③②
⑤⑥⑥⑥
⑤>口⑦
③④口⑦
58
⑥④②③ |----|
⑥口口< |①---|
④口⑤① |②③-④|
口③②⑤ |-⑤-⑥|
59
口③②① |----|
口口口口 |①②③-|
⑧⑨⑤④ |④-⑤-⑥-|
口⑦⑥口 |⑦-⑧-⑨-|
60
①②④③ |①②③④|
①口⑤口 |⑤⑥⑦⑧|
⑨口⑥口 |⑨--⑩|
⑦⑧⑨口 |--⑪-|
⑩⑩口⑪
口口口⑪
口口口口
口口口口
61
③④口③ |--①-|
④②①口 |--②-|
②口口① |--③-|
口②①口 |--④-⑤-|
口口口口
口口⑤口
口⑤口口
口口口口
62
口口口口 |①---|
口口口V |②---|
口口口① |----|
口>①口 |----|
口口口口
口口口口
口口口②
口口②口
最終更新:2019年11月04日 16:26