アットウィキロゴ
1116
BEMANI Sound Team "Dustup"

BASIC

Level: 7
BPM: 190
Notes(hold): 524(36)

1
口口口口 |----|
口口口口 |----|
口口口口 |----|
口口口口 |----|
2
①口口口 |①---|
口口口口 |----|
口口口口 |----|
口口口口 |----|
3
①口口口 |①---|
口口口口 |----|
口口口口 |----|
口口口口 |----|
4
①口口口 |①---|
口口口口 |----|
口口口口 |----|
口口口口 |----|
5
口口口口 |①---|
口①口口 |----|
口口口口 |----|
口口口口 |----|
6
①口口② |①---|
口口口③ |②---|
口口口口 |----|
口口口口 |③---|
7
①口口口 |①---|
口口口口 |②---|
口口口② |----|
口口口③ |③---|
8
①口②口 |①---|
口口③口 |②---|
口口口口 |----|
口口口口 |③---|
9
口口口口 |①---|
口①口口 |②---|
口口②口 |----|
口口③口 |③---|
10
①口口② |①---|
口口③口 |②---|
口④口口 |③---|
口口口口 |④---|
11
①口口口 |①---|
口口口② |②---|
口口③口 |③---|
口④口口 |④---|
12
①②口口 |①---|
口口③口 |②---|
口口口④ |③---|
口口口口 |④---|
13
口口②口 |①---|
口①③口 |②---|
口口④口 |③---|
口口口口 |④---|
14
①口口② |①-②-|
③口口④ |③-④-|
⑤口口⑥ |⑤-⑥-|
⑦口口⑧ |⑦-⑧-|
15
①口②口 |①-②-|
③口④口 |③-④-|
⑤口⑥口 |⑤-⑥-|
⑦口⑧口 |⑦-⑧-|
16
①口③口 |①-②-|
⑤②⑦④ |③-④-|
口⑥口⑧ |⑤-⑥-|
口口口口 |⑦-⑧-|
17
③口口② |①---|
口①口口 |②---|
口④④口 |③---|
口口口口 |④---|
18
口①①口 |①---|
口∧∧口 |----|
口口口口 |----|
口口口口 |----|
19
口①①口 |①---|
口口口口 |----|
口口口口 |----|
口口口口 |----|
20
口口口口 |----|
口口口口 |----|
口口口口 |----|
口口口口 |----|
21
口口口口 |----|
口口口口 |----|
口口口口 |----|
口口口口 |----|
22
④口④口 |①--②|
⑤③⑤① |--③-|
口口②口 |④---|
口口口口 |⑤---|
23
口口口口 |①--②|
口④口④ |--③-|
①⑤③⑤ |④---|
口②口口 |⑤---|
24
④②④⑤ |①--②|
①口③⑤ |--③-|
口口口口 |④---|
口口口口 |⑤---|
25
口口口口 |①--②|
口口口口 |--③-|
⑤④②④ |④---|
⑤①口③ |⑤---|
26
④口④口 |①--②|
⑤③⑤① |--③-|
口口②口 |④---|
口口口口 |⑤---|
27
口口口口 |①--②|
口④口④ |--③-|
①⑤③⑤ |④---|
口②口口 |⑤---|
28
④②④⑤ |①--②|
①口③⑤ |--③-|
口口口口 |④---|
口口口口 |⑤---|
29
口口口口 |①--②|
口口口口 |--③-|
⑤④②④ |④---|
⑤①口③ |⑤---|
30
④口⑤口 |①-②-|
①②③口 |③---|
⑥口⑦口 |④-⑤-|
口口口口 |⑥-⑦-|
31
口①③口 |①---|
①口口③ |②---|
口口口口 |③---|
口②④口 |④---|
32
④口⑤口 |①-②-|
①②③口 |③---|
⑥口⑦口 |④-⑤-|
口口口口 |⑥-⑦-|
33
口⑥⑥口 |①-②-|
口①口② |③-④-|
口③口④ |⑤---|
口⑤口口 |⑥---|
34
④口⑤口 |①-②-|
①②③口 |③---|
⑥口⑦口 |④-⑤-|
口口口口 |⑥-⑦-|
35
口①③口 |①---|
①口口③ |②---|
口口口口 |③---|
口②④口 |④---|
36
④口⑤口 |①-②-|
①②③口 |③---|
⑥口⑦口 |④-⑤-|
口口口口 |⑥-⑦-|
37
口⑥⑥口 |①-②-|
口①口② |③-④-|
口③口④ |⑤---|
口⑤口口 |⑥---|
38
口⑤口④ |①-②-|
口③②① |③---|
口⑦口⑥ |④-⑤-|
口口口口 |⑥-⑦-|
39
②口①口 |①-②-|
④口③口 |③-④-|
⑥口⑤口 |⑤-⑥-|
⑧口⑦口 |⑦-⑧-|
40
口⑤口④ |①-②-|
口③②① |③---|
口⑦口⑥ |④-⑤-|
口口口口 |⑥-⑦-|
41
口⑥⑥口 |①-②-|
②口①口 |③-④-|
④口③口 |⑤---|
口口⑤口 |⑥---|
42
口⑤口④ |①-②-|
口③②① |③---|
口⑦口⑥ |④-⑤-|
口口口口 |⑥-⑦-|
43
②口①口 |①-②-|
④口③口 |③-④-|
⑥口⑤口 |⑤-⑥-|
⑧口⑦口 |⑦-⑧-|
44
口⑤口④ |①-②-|
口③②① |③---|
口⑦口⑥ |④-⑤-|
口口口口 |⑥-⑦-|
45
口⑥⑥口 |①-②-|
②口①口 |③-④-|
④口③口 |⑤---|
口口⑤口 |⑥---|
46
①口口① |①---|
③口口③ |②---|
口②口口 |③---|
口口④口 |④---|
47
①口口① |①---|
③口口③ |②---|
口口②口 |③---|
口④口口 |④---|
48
①口口① |①---|
③口口③ |②---|
口②口口 |③---|
口口④口 |④---|
49
①口口① |①---|
③口口③ |②---|
口口②口 |③---|
口④口口 |④---|
50
②②①① |①---|
④④③③ |②---|
口口口口 |③---|
口口口口 |④---|
51
口口口口 |①---|
口口口口 |②---|
②②①① |③---|
④④③③ |④---|
52
②口口① |①-②-|
④口口③ |③-④-|
⑥口口⑤ |⑤-⑥-|
⑧口口⑦ |⑦-⑧-|
53
口口口口 |①---|
口①①口 |②---|
④②②④ |③---|
口③③口 |④---|
54
口①口口 |①-②-|
口|口口
口|口口
口∧口口

口②③口
口口|口 |③-④-|
口口|口
口口∧口

⑤口④口
|口口口
|口口口 |⑤-⑥-|
∧口口口

⑥口口口
口口口口
口⑦⑦口
口口口口 |⑦---|
55
口口口口 |①-②-|
――①
口口口口
口口口口

口口口口
口口口② |③-④-|
――③
口口口口

――⑤
口口口口
口口口④ |⑤-⑥-|
口口口口

口口口⑥
口口口口
口⑦⑦口
口口口口 |⑦---|
56
口①口口 |①-②-|
口|口口
口|口口
口∧口口

口②③口
口口|口 |③-④-|
口口|口
口口∧口

⑤口④口
|口口口
|口口口 |⑤-⑥-|
∧口口口

⑥口口口
口口口口
口⑦⑦口
口口口口 |⑦---|
57
口口口口 |①-②-|
――①
口口口口
口口口口

口口口口
口口口② |③-④-|
③――<
口口口口

口口口⑤
口口⑥口
④⑦口口 |⑤-⑥-|
口口口口 |⑦---|
58
①①②口 |①---|
口口|口 |②-③-|
口口|口
口口∧口

口口③口
――④
口口口口 |④-⑤-|
口口口口

口口口口
口口口⑤
口⑥⑥口
口口口口 |⑥---|
59
①口口口 |①-②-|
|口口口
|口口口
∧口口口

②③口口
口|口口 |③-④-|
口|口口
口∧口口

口④⑤口
口口|口
口口|口 |⑤-⑥-|
口口∧口

口口⑥口
口口口口
⑦⑦口口
口口口口 |⑦---|
60
口口口口 |①-②-|
口>―①
口口口口
口口口口

口口口口
口口口②
口口口口
口口口口

口口口口
口口口∨ |③-④-|
口口口|
口口口③

口口口口
口口口口
口口口口
口口口④

口口口口
口口口口
口口口口 |⑤-⑥-|
口⑤―<

口口口口
口口口口
口口口口
口⑥口口

口口口口
口⑦口口
口|口口
口∧口口 |⑦-⑧-|

口口口口
口⑧口口
口口口口
口口口口
61
口②②口 |①---|
口⑤④③ |②---|
口①①口 |③-④-|
口口口口 |⑤---|
62
――① |----|
口口口口 |①-②-|
口口口口
口口口口

口口口②
③――<
口口口口 |③-④-|
口口口口

口口口口
④口口口
――⑤
口口口口 |⑤-⑥-|

口口口口
口口口口
口口口⑥
口口口口
63
口口口口 |①-②-|
口口口口
口口口口
①――<

口口③口
口口|口 |③-④-|
口口|口
②口∧口

口∨④口
口|口口
口|口口 |⑤-⑥-|
口⑤口口

口口口口
口⑦⑦口
口口口口
口⑥口口 |⑦---|
64
①⑤③① |①---|
口口口⑦ |②-③-|
口④②口 |④-⑤-|
口口口⑥ |⑥-⑦-|
65
口口口口 |①-②-|
⑥④②口 |③-④-|
口⑦⑦口 |⑤-⑥-|
⑤③①口 |⑦---|
66
①――< |----|
口口口口 |①-②-|
口口口口
口口口口

②口口口
――③
口口口口 |③-④-|
口口口口

口口口口
口口口④
⑤――<
口口口口 |⑤-⑥-|

口口口口
口口口口
⑥口口口
口口口口
67
口口口口 |①-②-|
口口口口
口口口口
――①

口③口口
口|口口 |③-④-|
口|口口
口∧口②

口④∨口
口口|口
口口|口 |⑤-⑥-|
口口⑤口

口口口口
口⑦⑦口
口口口口
口口⑥口 |⑦---|
68
①口口① |①---|
口口口口 |②-③-|
②③④⑤ |④-⑤-|
口⑥⑦口 |⑥-⑦-|
69
④①①④ |①---②-|
⑤②②⑤ |--③---|
⑥③③⑥ |④---⑤-|
口口口口 |--⑥---|
70
口③口⑤ |①---|
口口②口 |②--③|
口④口口 |-④--|
①口口① |⑤---|
71
口口⑤口 |①-②-|
①②③④ |③-④-|
口⑥口口 |-⑤--|
口口口口 |⑥---|
72
⑤口③口 |①---|
口②口口 |②--③|
①口④① |-④--|
口口口口 |⑤---|
73
口⑤口口 |①-②-|
④③②① |③-④-|
口口⑥口 |-⑤--|
口口口口 |⑥---|
74
口④②⑥ |①---②-|
口⑤③口 |--③---|
①口口① |④---⑤-|
口口口口 |--⑥---|
75
②口⑤口 |①---②-|
③⑥口① |--③---|
口④④口 |④-⑤-|
口口口口 |⑥---|
76
⑤②口⑤ |①---|
④口③④ |②-③-|
①口口① |④---|
口口口口 |⑤---|
77
口③④口 |①---|
口⑤⑥口 |②---|
口①①口 |③-④-|
口②②口 |⑤-⑥-|
78
①口④① |①---|
口口口④ |②---|
口③口② |③---|
口口口口 |④---|
79
①口口口 |①---|
口②口口 |②---|
口口①④ |③---|
口③④口 |④---|
80
①口②① |①---|
口口口口 |②---|
④口③口 |③---|
口④口口 |④---|
81
口口口口 |①---|
口①②② |②---|
口口③③ |③---|
口口④④ |④---|
82
①口④① |①---|
口口口④ |②---|
口②口③ |③---|
口口口口 |④---|
83
①口口口 |①---|
口②口口 |②---|
口口①④ |③---|
口③④口 |④---|
84
①口口② |①-②-|
③口口④ |③-④-|
⑤口口⑥ |⑤-⑥-|
⑦口口⑧ |⑦-⑧-|
85
口③③口 |①---|
口①口口 |②---|
口④④口 |③---|
口口②口 |④---|
86
口口口口 |①---|
①<>① |----|
口口口口 |----|
口口口口 |----|
87
口口口口 |①---|
①口口① |----|
口口口口 |----|
口口口口 |----|
最終更新:2022年04月09日 18:59