アットウィキロゴ
Hopeful Frontier!!!
cosMo@暴走P

BASIC

Level: 7
BPM: 298
Notes: 535

1
口口口口 |----|
口口口口 |----|
口口口口 |----|
口口口口 |----|
2
口口口口 |----|
口口口口 |----|
口口口口 |----|
口口口口 |----|
3
口口口口 |----|
口口口口 |----|
口口口口 |----|
口口口口 |----|
4
口口口口 |①---|
口口口口 |----|
②口口② |②---|
①口口① |----|
5
②②②② |①---|
①口口① |----|
口口口口 |②---|
口口口口 |----|
6
口口口口 |①---|
口口②口 |--②-|
口口口口 |----|
口口①口 |----|
7
口口口口 |①---|
口②口口 |--②-|
口口口口 |----|
口①口口 |----|
8
口②①口 |①---|
口口口口 |----|
口口口口 |②---|
口口口口 |----|
9
②口口② |①---|
口口口口 |----|
口口口口 |②---|
①口口① |----|
10
口口口口 |①---|
口口②口 |--②-|
口口口口 |----|
口口①口 |----|
11
口口口口 |①---|
口②口口 |--②-|
口口口口 |----|
口①口口 |----|
12
口①②口 |----|
口口口口 |①---|
口口口口 |②---|
口口口口 |----|
13
③口口③ |①---|
②口口② |--②-|
口口口口 |--③-|
①口口① |----|
14
口口口口 |①---|
口口②口 |--②-|
口口口口 |----|
口口①口 |----|
15
口口口口 |①---|
口②口口 |--②-|
口口口口 |----|
口①口口 |----|
16
①①②② |①---|
口口口口 |②---|
口口口口 |----|
③口口③ |--③-|
17
口口口口 |----|
②口口② |①---|
口①①口 |②---|
口口口口 |----|
18
口口口口 |①---|
口口②口 |--②-|
口口口口 |----|
口口①口 |----|
19
口口口口 |①---|
口②口口 |--②-|
口口口口 |----|
口①口口 |----|
20
①口口① |①---|
口口口口 |----|
口口口口 |----|
口口口口 |----|
21
口口口口 |①---|
口口口① |----|
②口口口 |②---|
口口口口 |----|
22
④④口口 |①---|
口口③口 |----|
口②口口 |②-③-|
口口①① |--④-|
23
口口口① |----|
口口口口 |----|
口口口口 |①---|
口口口口 |----|
24
③口口③ |①---|
口口口口 |--②-|
口②①口 |----|
②口口① |--③-|
25
口口口口 |----|
口口口口 |----|
口口口口 |----|
口口口口 |----|
26
口口④④ |①---|
口③口口 |----|
口口②口 |②-③-|
①①口口 |--④-|
27
①口口口 |----|
口口口口 |----|
口口口口 |①---|
口口口口 |----|
28
口口口口 |①-②-|
口③④口 |--③-|
口⑥⑤口 |④---|
口②①口 |⑤-⑥-|
29
③①②④ |--①-|
口口口口 |②---|
口口口口 |③---|
口口口口 |④---|
30
④④口口 |①---|
口口③口 |----|
口②口口 |②-③-|
口口①① |--④-|
31
口口口① |----|
口口口口 |----|
口口口口 |①---|
口口口口 |----|
32
③口口③ |①---|
口口口口 |--②-|
口②①口 |----|
②口口① |--③-|
33
口口口口 |----|
口口口口 |----|
口口口口 |----|
口口口口 |----|
34
口口口口 |①---|
③④②① |②---|
口口口口 |③---|
口口口口 |④---|
35
口口口口 |①---|
口口口口 |②---|
③④②① |③---|
口口口口 |④---|
36
③口口③ |①---|
口②②口 |--②-|
口口口口 |----|
口①①口 |③---|
37
口口口口 |----|
口口口口 |----|
口口口口 |----|
口口口口 |----|
38
口口口③ |①---|
口口口口 |--②-|
口口口② |----|
口①①口 |③---|
39
口①①口 |①---|
②口口口 |--②-|
口口口口 |----|
③口口口 |③---|
40
口口⑤口 |①-②-|
口④③⑤ |③-④-|
口②①口 |----|
口口口口 |--⑤-|
41
口①口口 |----|
①口口口 |----|
口口口口 |①---|
口口口口 |----|
42
口口③③ |①---|
口口②② |--②-|
口口口口 |--③-|
口口①① |----|
43
②②口口 |①---|
口口口口 |--②-|
口口口口 |----|
①①③③ |③---|
44
口口口口 |①---|
①③②④ |②---|
①③②④ |③---|
口口口口 |④---|
45
口口口口 |----|
口口口口 |----|
口口口口 |----|
口口口口 |----|
46
口①口口 |①---|
①⑤④口 |----|
口③②口 |②-③-|
口口口口 |④-⑤-|
47
②口口① |----|
口口口口 |①---|
口口口口 |②---|
③口口口 |③---|
48
口②③口 |①---|
②口口③ |②---|
④口口① |③---|
口④①口 |④---|
49
③口口③ |①-②-|
口②①口 |--③-|
口口口口 |----|
口口口口 |----|
50
口口口口 |①---|
口⑤④口 |----|
口③②口 |②-③-|
①口口① |④-⑤-|
51
口③②① |----|
口口口口 |①---|
口口口口 |②---|
口口口口 |③---|
52
口口口口 |①---|
口口③③ |--②-|
②②口口 |----|
口口①① |③---|
53
①①口口 |--①-|
口口口口 |----|
口口口口 |②---|
②口口② |----|
54
③③③③ |①---|
②②②② |--②-|
口口口口 |----|
口①①口 |③---|
55
口口口口 |①---|
③口口③ |--②-|
②口口① |----|
②口口① |③---|
56
⑤口口⑤ |①-②-|
口④③口 |③-④-|
口②①口 |----|
口口口口 |--⑤-|
57
口口口口 |----|
②口口③ |①---|
口②③① |②---|
口口①口 |③---|
58
口①口② |①---|
③口口口 |--②-|
口口口口 |----|
口口口口 |--③-|
59
口口口口 |----|
口口①口 |①---|
②口口口 |--②-|
口口口口 |----|
60
口②口口 |--①-|
口口口口 |--②-|
口③口① |----|
口口口口 |③---|
61
口口口口 |--①-|
口口口② |----|
口口口口 |②---|
口口口① |----|
62
口①口口 |①---|
①⑤④口 |----|
口③②口 |②-③-|
口口口口 |④-⑤-|
63
②口口① |----|
口口口口 |①---|
口口口口 |②---|
③口口口 |③---|
64
口②③口 |①---|
②口口③ |②---|
④口口① |③---|
口④①口 |④---|
65
③口口③ |①-②-|
口②①口 |--③-|
口口口口 |----|
口口口口 |----|
66
口口①口 |①---|
口口口口 |----|
口口口口 |----|
口口口口 |----|
67
口口口口 |①---|
口①口口 |----|
口口口口 |----|
口口口口 |----|
68
口口口口 |①---|
口口口口 |----|
口口①口 |----|
口口口口 |----|
69
口口口口 |①---|
口口口口 |----|
口口口口 |----|
口①口口 |----|
70
口口口① |①---|
口口口① |----|
口口口② |②---|
口口口② |----|
71
口口①口 |①---|
口口①口 |----|
口口②口 |②---|
口口②口 |----|
72
口①口口 |①---|
口①口口 |----|
口②口口 |②---|
口②口口 |----|
73
①口口口 |①---|
①口口口 |----|
②口口口 |②---|
②口口口 |----|
74
口口③① |①---|
口口口口 |②---|
口口口口 |③---|
口口④② |④---|
75
③①口口 |①---|
口口口口 |②---|
口口口口 |③---|
④②口口 |④---|
76
口口③① |①---|
口口口口 |②---|
口口口口 |③---|
口口④② |④---|
77
口①口口 |①---|
口口口口 |----|
口口口口 |----|
口口口口 |----|
78
④④口口 |①---|
口口①口 |②---|
口②口口 |③---|
口口③口 |--④-|
79
口口②② |----|
口口口口 |----|
口口口① |①---|
口口口① |--②-|
80
口口口口 |----|
口口口口 |----|
①口口口 |①---|
①口口口 |----|
81
口③③口 |①---|
口②②口 |--②-|
口口口口 |--③-|
口①①口 |----|
82
②口口② |①---|
口口口口 |----|
口口①口 |----|
口口口口 |--②-|
83
口口口口 |----|
口口口口 |----|
口口口口 |①---|
①口口① |----|
84
口②①口 |①---|
②口口① |----|
①口口② |②---|
口①②口 |----|
85
口口口口 |①---|
口①①口 |----|
口①①口 |----|
口口口口 |----|
86
②②口① |①---|
口口口口 |--②-|
口口口口 |----|
口口口口 |----|
87
口口口口 |①---|
口口④④ |--②-|
口③③口 |--③-|
②②口① |--④-|
88
①口口② |--①-|
口口口口 |----|
口口口③ |②---|
口口口口 |③---|
89
口口口口 |①---|
口口口口 |②---|
口口口口 |③---|
①③②④ |④---|
90
口口口口 |①---|
口①②口 |--②-|
①③③② |----|
口口口口 |③---|
91
②口口② |--①-|
①口口① |----|
口口口口 |--②-|
口口口口 |----|
92
口口口口 |--①-|
口口口口 |----|
②口③口 |②---|
口口口① |③---|
93
①口口② |①---|
口①②口 |----|
口口口口 |②---|
口口口口 |----|
94
口口口口 |----|
口口口口 |----|
口口口口 |----|
口口口口 |----|
95
口口口口 |----|
口口口口 |----|
口口口口 |----|
口口口口 |----|
96
口⑤④口 |①---|
口③②口 |----|
口口口口 |②-③-|
①口口① |④-⑤-|
97
口口口口 |----|
口口口口 |----|
口口口口 |----|
口口口口 |----|
98
口口口口 |①---|
口口口口 |②---|
④口口③ |③---|
②口口① |④---|
99
④口口③ |①---|
②口口① |②---|
口口口口 |③---|
口口口口 |④---|
100
口口口口 |①---|
口口①口 |--②-|
口②口口 |----|
口口③口 |③---|
101
口口口口 |①---|
②口口② |----|
口口口口 |②---|
口①口口 |----|
102
①口④① |①---|
口口口口 |②-③-|
口③②口 |--④-|
⑤⑤口口 |--⑤-|
103
口②口口 |--①-|
②口口口 |--②-|
口口口口 |----|
口口①① |----|
104
口口口口 |----|
口①②③ |①---|
口口口口 |②---|
口口口口 |③---|
105
口口口口 |----|
口口口口 |①---|
③②①口 |②---|
口口口口 |③---|
106
口口口口 |①---|
口口④口 |②---|
口口口口 |③---|
口①②③ |--④-|
107
口口口口 |----|
口口口口 |----|
口口口口 |----|
口口口口 |----|
108
②口口① |①---|
④口口③ |②---|
口口口口 |③---|
口口口口 |④---|
109
口②①口 |①---|
口④③口 |②---|
口口口口 |③---|
口口口口 |④---|
110
口口口口 |①---|
口口口口 |②---|
②口口① |③---|
④口口③ |④---|
111
口口口口 |①---|
口口口口 |②---|
口②①口 |③---|
口④③口 |④---|
112
口口口口 |①---|
口口口① |----|
口口口口 |----|
口口口口 |----|
113
口口口口 |①---|
口口①口 |----|
口口口口 |----|
口口口口 |----|
114
口口口口 |①---|
口①口口 |----|
口口口口 |----|
口口口口 |----|
115
口口口口 |①---|
①口口口 |----|
口口口口 |----|
口口口口 |----|
116
口①①口 |①---|
口口口口 |----|
口口口口 |----|
口口口口 |----|
117
口口口口 |----|
口口口口 |----|
口口口口 |----|
口口口口 |----|
118
口口口口 |①---|
口口口口 |----|
①口口① |----|
口①①口 |----|
119
口口口口 |----|
口口口口 |----|
口口口口 |----|
口口口口 |----|
120
口①①口 |①---|
口口口口 |----|
口口口口 |----|
口口口口 |----|
121
②口口② |①---|
口口口口 |----|
②口口② |----|
①口口① |②---|
122
口口⑤口 |①-②-|
口④③⑤ |③-④-|
口②①口 |----|
口口口口 |--⑤-|
123
口①口口 |----|
①口口口 |----|
口口口口 |①---|
口口口口 |----|
124
口口③③ |①---|
口口②② |--②-|
口口口口 |--③-|
口口①① |----|
125
②②口口 |①---|
口口口口 |--②-|
口口口口 |----|
①①③③ |③---|
126
口口口口 |①---|
①③②④ |②---|
①③②④ |③---|
口口口口 |④---|
127
口口口口 |----|
口口口口 |----|
口口口口 |----|
口口口口 |----|
128
口①口口 |①---|
①⑤④口 |----|
口③②口 |②-③-|
口口口口 |④-⑤-|
129
②口口① |----|
口口口口 |①---|
口口口口 |②---|
③口口口 |③---|
130
口②③口 |①---|
②口口③ |②---|
④口口① |③---|
口④①口 |④---|
131
③口口③ |①-②-|
口②①口 |--③-|
口口口口 |----|
口口口口 |----|
132
口口口口 |①---|
口口口口 |②---|
④③②① |③---|
口口口口 |④---|
133
④③②① |①---|
口口口口 |②---|
口口口口 |③---|
口口口口 |④---|
134
口口口口 |①---|
口口口口 |②---|
口口口口 |③---|
④③②① |④---|
135
口口口口 |①---|
④③②① |②---|
④③②① |③---|
口口口口 |④---|
136
口口③① |①---|
口口口口 |②---|
口口口口 |③---|
口口④② |④---|
137
③①口口 |①---|
口口口口 |②---|
口口口口 |③---|
④②口口 |④---|
138
口口③① |①---|
口口口口 |②---|
口口口口 |③---|
口口④② |④---|
139
③①口口 |①---|
口口口口 |②---|
口口口口 |③---|
口②口口 |----|
140
口口②口 |①---|
口③口口 |--②-|
口口口① |--③-|
口口口口 |----|
141
②②口口 |①---|
口口口口 |----|
口口口口 |②---|
口口①口 |----|
142
口口口① |①---|
口口②① |--②-|
③口②口 |----|
口③口口 |--③-|
143
①②③口 |----|
口口口口 |①---|
口口口口 |②---|
口口口口 |③---|
144
②口口① |①---|
口口口口 |----|
口口口口 |----|
①口口② |②---|
145
口口口口 |----|
口①②口 |--①-|
口口口口 |----|
口口口口 |②---|
146
②口②口 |----|
口口口口 |----|
口口口口 |①---|
口①口① |--②-|
147
口②口② |----|
口口口口 |----|
口口口口 |①---|
①口①口 |--②-|

accuracy: 100%
最終更新:2022年04月17日 14:32