アットウィキロゴ
Hopeful Frontier!!!
cosMo@暴走P

ADVANCED

Level: 9.5
BPM: 298
Notes: 786

1
口口口口 |----|
口口口口 |----|
口口口口 |----|
口口口口 |----|
2
口口口口 |----|
口口口口 |----|
口口口口 |----|
口口口口 |----|
3
口口口口 |----|
口口口口 |----|
口口口口 |----|
口口口口 |----|
4
①口①口 |①---|
①①①口 |----|
①口①口 |----|
口口口口 |----|
5
口①①口 |----|
口①口口 |----|
口①①口 |①---|
口①口口 |----|
6
口口口② |①---|
口口口② |--②-|
口口口口 |----|
口口口① |----|
7
②口口口 |①---|
②口口口 |--②-|
口口口口 |----|
①口口口 |----|
8
③口口口 |①---|
口口②② |----②-|
口口口口 |----|
口口①① |--③-|
9
口口口口 |----|
③口口口 |①---|
口②口口 |②---|
①口口口 |③---|
10
口口口② |①---|
口口口② |--②-|
口口口口 |----|
口口口① |----|
11
②口口口 |①---|
②口口口 |--②-|
口口口口 |----|
①口口口 |----|
12
口口口口 |----|
口口④③ |①-②-|
①②口口 |③-④-|
口口口口 |----|
13
⑤①②口 |①-②-|
口④口口 |--③-|
口口口口 |--④-|
口③口口 |--⑤-|
14
口口口② |①---|
口口口② |--②-|
口口口口 |----|
口口口① |----|
15
②口口口 |①---|
②口口口 |--②-|
口口口口 |----|
①口口口 |----|
16
口⑤⑥口 |①-②-③-|
口口⑥口 |④---|
①②③④ |----|
口口口口 |⑤-⑥-|
17
④口口口 |----|
口④口口 |①-②-|
口口口口 |③-④-|
①②③口 |----|
18
口口口② |①---|
口口口② |--②-|
口口口口 |----|
口口口① |----|
19
②口口口 |①---|
②口口口 |--②-|
口口口口 |----|
①口口口 |----|
20
口②③④ |①---|
口口口口 |②---|
口②③④ |③---|
口①①口 |④---|
21
口口口口 |①---|
口①①口 |----|
口口口口 |②---|
②口口② |----|
22
口口①⑤ |①---|
口口⑤① |②---|
②④③口 |③-④-|
口②口口 |--⑤-|
23
①口口口 |----|
②口口口 |①---|
③口口口 |②---|
口口口口 |③---|
24
④①①⑤ |①---|
口口口⑤ |②-③-|
口口口③ |--④-|
口②口③ |--⑤-|
25
口口口口 |----|
口口口口 |--①-|
①口口口 |----|
①口口口 |----|
26
⑤①口口 |①---|
①⑤口口 |②---|
口③④② |③-④-|
口口②口 |--⑤-|
27
口口口① |----|
口口口② |①---|
口口口③ |②---|
口口口口 |③---|
28
口口口口 |①-②-|
口口口口 |--③-|
⑥⑤口口 |④---|
②①③④ |⑤-⑥-|
29
口口口口 |--①-|
③口口口 |②---|
口口①② |③---|
④口口口 |④---|
30
口口①⑤ |①---|
口口⑤① |②---|
②④③口 |③-④-|
口②口口 |--⑤-|
31
①口口口 |----|
②口口口 |①---|
③口口口 |②---|
口口口口 |③---|
32
口①①口 |①---|
⑤⑤⑤⑤ |②-③-|
口④④③ |--④-|
口②口③ |--⑤-|
33
口口口口 |----|
口口口口 |----|
口口口口 |①---|
①口①口 |----|
34
②口口① |①-②-|
④口口③ |③-④-|
⑥口口⑤ |⑤-⑥-|
⑧口口⑦ |⑦-⑧-|
35
口⑧⑦口 |①-②-|
口⑥⑤口 |③-④-|
口④③口 |⑤-⑥-|
口②①口 |⑦-⑧-|
36
口口口① |①---|
口口口① |--②-|
②口口口 |----|
②③③③ |③---|
37
①②③④ |----|
口口口口 |----|
口口口口 |①-②-|
口口口口 |③-④-|
38
口口口口 |①---|
③③口口 |--②-|
口①②口 |----|
①口口② |③---|
39
口②②口 |①---|
口口口口 |--②-|
口口口口 |----|
③①①③ |③---|
40
⑥口口⑥ |①-②-|
⑤口口口 |③-④-|
①②③④ |--⑤-|
口口口口 |--⑥-|
41
口口口口 |----|
口①口① |①---|
③口③口 |②---|
②口②口 |③---|
42
口口①口 |①-②-|
⑤口③口 |③-④-|
口④口口 |--⑤-|
口②口口 |----|
43
③①②口 |①---|
口口口口 |--②-|
口口口① |----|
②口口③ |③---|
44
口口④③ |①---|
①②④③ |②---|
①②口口 |③---|
口口口口 |④---|
45
口口口口 |----|
口口口口 |----|
口口口口 |----|
口口口口 |----|
46
口口口口 |①---|
①口口口 |----|
⑤④③② |②-③-|
①口口口 |④-⑤-|
47
口口①口 |----|
③口口口 |①---|
口口口口 |②---|
口②口口 |③---|
48
③口口② |①---|
口③②口 |②---|
口④①口 |③---|
④口口① |④---|
49
口③口口 |①-②-|
③口口口 |--③-|
口口口口 |----|
口①②口 |----|
50
口口口① |①---|
口口口① |----|
②③④⑤ |②-③-|
口口口口 |④-⑤-|
51
③口口② |----|
口口口口 |①---|
口口口口 |②---|
口①①口 |③---|
52
口口口口 |①-②-|
④⑥⑤③ |③-④-|
口口口口 |⑤-⑥-|
②⑧⑦① |⑦-⑧-|
53
④③②① |①-②-|
口口口口 |③-④-|
⑧⑦⑥⑤ |⑤-⑥-|
口口口口 |⑦-⑧-|
54
③口口③ |①---|
③②①③ |--②-|
口口口口 |----|
②口口① |③---|
55
口②②口 |①---|
口口口口 |--②-|
口口口口 |----|
③①①③ |③---|
56
⑥⑥口⑥ |①-②-|
口口⑤口 |③-④-|
①②③④ |--⑤-|
口口口口 |--⑥-|
57
口口②口 |----|
③口口② |①---|
口③口口 |②---|
①①①口 |③---|
58
口口口口 |①---|
口③口③ |----|
②口②口 |②---|
口口口① |--③-|
59
①口①口 |----|
口口口口 |①---|
口口口口 |--②-|
②③口口 |--③-|
60
口③口口 |--①-|
②③口口 |--②-|
②口口口 |----|
口口①口 |③---|
61
口口②口 |--①-|
口口②① |----|
口口口① |②---|
口口口口 |----|
62
口口口口 |①---|
①口口口 |----|
⑤④③② |②-③-|
①口口口 |④-⑤-|
63
口口①口 |----|
③口口口 |①---|
口口口口 |②---|
口②口口 |③---|
64
③口口② |①---|
口③②口 |②---|
口④①口 |③---|
④口口① |④---|
65
口③口口 |①-②-|
③口口口 |--③-|
口口口口 |----|
口①②口 |----|
66
口口①① |①---|
口口口② |----|
口口口口 |②---|
口口口口 |----|
67
①口口口 |①---|
②口口口 |----|
口口口口 |②---|
口口口口 |----|
68
口②②口 |①---|
口口口口 |----|
口口口口 |②---|
口①①口 |----|
69
口口口口 |①---|
口口口口 |----|
口①①口 |----|
口口口口 |----|
70
口口①① |①---|
口口②② |②---|
口口③③ |③---|
口口④④ |④---|
71
①①口口 |①---|
②②口口 |②---|
③③口口 |③---|
④④口口 |④---|
72
口口②① |①-②-|
口口④③ |③-④-|
口口⑥⑤ |⑤-⑥-|
口口⑧⑦ |⑦-⑧-|
73
②①口口 |①-②-|
④③口口 |③-④-|
⑥⑤口口 |⑤-⑥-|
⑧⑦口口 |⑦-⑧-|
74
口口⑤① |①②③④|
口口⑥② |----|
口口⑦③ |⑤⑥⑦⑧|
口口⑧④ |----|
75
⑤①口口 |①②③④|
⑥②口口 |----|
⑦③口口 |⑤⑥⑦⑧|
⑧④口口 |----|
76
口口⑤① |①②③④|
口口⑥② |----|
口口⑦③ |⑤⑥⑦⑧|
口口⑧④ |----|
77
①口口口 |①---|
口①口口 |----|
口口口口 |----|
口口口口 |----|
78
口⑤③④ |①---|
①口口口 |②---|
⑤口口口 |③-④-|
②口口口 |--⑤-|
79
口口⑤口 |----|
④③②① |①-②-|
口口口⑤ |③-④-|
口口口口 |--⑤-|
80
口口口口 |----|
口口口口 |①---|
口口口口 |②---|
①③②口 |③---|
81
口④③② |①-②-|
口④③② |--③-|
口口①口 |--④-|
口口口口 |----|
82
口口口口 |①-②-|
口口口⑥ |③-④-|
⑤口口口 |--⑤-|
①②③④ |--⑥-|
83
①口口口 |--①-|
口口口口 |--②-|
口③②口 |③---|
口④口口 |④---|
84
口口口③ |①---②-|
④口口② |--③---|
⑤口口① |④---⑤-|
⑥口口口 |--⑥---|
85
口口④口 |①---②-|
口口④口 |--③---|
口口口口 |④---|
口③②① |----|
86
口③口口 |①-②-|
③口口④ |--③-|
②①口口 |----|
口口口④ |④---|
87
③口口③ |----|
口②②口 |--①-|
口①①口 |--②-|
口口口口 |--③-|
88
口口①口 |①---|
②口口③ |----|
口口口口 |②---|
口口口口 |③---|
89
口口口口 |①-②-|
口口口口 |③-④-|
①②④③ |⑤-⑥-|
⑤⑥⑧⑦ |⑦-⑧-|
90
口①②③ |①-②-|
④⑤⑥⑦ |③-④-|
⑧口口口 |⑤-⑥-|
口口口口 |⑦-⑧-|
91
口④④口 |①-②-|
口口口口 |--③-|
口②③① |--④-|
口②③口 |----|
92
①口口口 |--①-|
③口口② |----|
③口口② |②---|
口口口口 |③---|
93
⑦⑧②① |①-②-|
口口口口 |③-④-|
口口口口 |⑤-⑥-|
③④⑥⑤ |⑦-⑧-|
94
口口口口 |----|
口口口口 |----|
口口口口 |----|
口口口口 |----|
95
口口口口 |----|
口①口① |----|
口口①口 |①---|
口①口口 |----|
96
③④⑤⑥ |①---|
口口①口 |②---|
口口口口 |③-④-|
口口②口 |⑤-⑥-|
97
口口口口 |----|
口口口口 |----|
口口口口 |----|
口口口口 |----|
98
口口口口 |①-②-③-|
口口口口 |④---|
⑧⑦⑥⑤ |⑤-⑥-⑦-|
①②③④ |⑧---|
99
⑧⑦⑥⑤ |①-②-③-|
①②③④ |④---|
口口口口 |⑤-⑥-⑦-|
口口口口 |⑧---|
100
口口口口 |①-②-|
口⑧⑦口 |③-④-|
④⑥⑤口 |⑤-⑥-|
口②③① |⑦-⑧-|
101
②口口① |①-②-|
④口口③ |③-④-|
⑧口口⑦ |⑤-⑥-|
⑥口口⑤ |⑦-⑧-|
102
④口②③ |①---|
口口口口 |②-③-|
口口⑤口 |--④-|
口①①⑤ |--⑤-|
103
口口口口 |--①-|
②口口② |--②-|
②①口② |----|
①口口口 |----|
104
口①①口 |①---|
口口口口 |②---|
口口④口 |③---|
口口③② |④---|
105
①②口口 |----|
口③口口 |①---|
口口口口 |②---|
口口口口 |③---|
106
口口⑦⑦ |①-②-|
⑥口⑤口 |③-④-|
口④口③ |⑤-⑥-|
口②口① |--⑦-|
107
口口口口 |----|
口口口口 |----|
口口口口 |----|
口口口口 |----|
108
口口口口 |①-②-③-|
口口口口 |④-⑤-⑥-|
⑤⑥⑦⑧ |⑦-⑧---|
①②③④ |----|
109
⑧⑦⑥⑤ |①-②-③-|
④③②① |④-⑤-⑥-|
口口口口 |⑦-⑧---|
口口口口 |----|
110
口口口口 |①-②-③-|
口口口口 |④-⑤-⑥-|
⑤⑥⑦⑧ |⑦-⑧---|
①②③④ |----|
111
⑧⑦⑥⑤ |①-②-③-|
④③②① |④-⑤-⑥-|
口口口口 |⑦-⑧---|
口口口口 |----|
112
口口口口 |①---|
口口口口 |----|
口②口口 |②---|
口口①口 |----|
113
口②口口 |①---|
口口①口 |----|
口口口口 |②---|
口口口口 |----|
114
①口口① |①---|
口口口口 |----|
口口口口 |②---|
②口口② |----|
115
口口口口 |①---|
口②口口 |----|
口口①口 |②---|
口口口口 |----|
116
口口①① |①---|
口口口口 |----|
口口口口 |----|
口口口口 |----|
117
口口口口 |----|
口口口口 |----|
口口口口 |----|
口口口口 |----|
118
口口口口 |----|
口口口口 |----|
口口口口 |----|
口口口口 |----|
119
口口口口 |----|
口口口口 |----|
口口口口 |----|
口口口口 |----|
120
口口口口 |①---|
③口口口 |--②-|
②口口口 |----|
口口口① |③---|
121
口口③② |①---|
口口③口 |--②-|
口口口口 |----|
口①③口 |③---|
122
⑥口口⑥ |①-②-|
⑤口口口 |③-④-|
①②③④ |--⑤-|
口口口口 |--⑥-|
123
口口口口 |----|
口①口① |①---|
③口③口 |②---|
②口②口 |③---|
124
口口①口 |①-②-|
⑤口③口 |③-④-|
口④口口 |--⑤-|
口②口口 |----|
125
③①②口 |①---|
口口口口 |--②-|
口口口① |----|
②口口③ |③---|
126
口口④③ |①---|
①②④③ |②---|
①②口口 |③---|
口口口口 |④---|
127
口口口口 |----|
口口口口 |----|
口口口口 |----|
口口口口 |----|
128
口口口口 |①---|
①口口口 |----|
⑤④③② |②-③-|
①口口口 |④-⑤-|
129
口口①口 |----|
③口口口 |①---|
口口口口 |②---|
口②口口 |③---|
130
③口口② |①---|
口③②口 |②---|
口④①口 |③---|
④口口① |④---|
131
口③口口 |①-②-|
③口口口 |----|
口口口口 |--③-|
口①②口 |----|
132
口口②① |①-②-|
口口④③ |③-④-|
口口⑥⑤ |⑤-⑥-|
口口⑧⑦ |⑦-⑧-|
133
②①口口 |①-②-|
④③口口 |③-④-|
⑥⑤口口 |⑤-⑥-|
⑧⑦口口 |⑦-⑧-|
134
口口②① |①-②-|
口口④③ |③-④-|
口口⑥⑤ |⑤-⑥-|
口口⑧⑦ |⑦-⑧-|
135
②①口口 |①-②-|
④③口口 |③-④-|
⑥⑤口口 |⑤-⑥-|
⑧⑦口口 |⑦-⑧-|
136
口口⑤① |①②③④|
口口⑥② |----|
口口⑦③ |⑤⑥⑦⑧|
口口⑧④ |----|
137
⑤①口口 |①②③④|
⑥②口口 |----|
⑦③口口 |⑤⑥⑦⑧|
⑧④口口 |----|
138
口口⑤① |①②③④|
口口⑥② |----|
口口⑦③ |⑤⑥⑦⑧|
口口⑧④ |----|
139
⑤①口⑤ |①②③④|
口②口口 |----|
口③口口 |⑤---|
口④口口 |----|
140
口口口口 |①---|
②③⑤④ |②-③-|
口口①口 |--④-|
口口口① |⑤---|
141
口口口口 |①-②-|
⑤口口口 |--③-|
⑤口口口 |④---|
②①③④ |⑤---|
142
④④②② |①---|
口口口口 |②-③-|
口③①口 |--④-|
口⑤⑤口 |--⑤-|
143
口口口口 |----|
口①①② |①---|
③口口② |②---|
③口口口 |③---|
144
口③③口 |①---|
②口口口 |②---|
口口口口 |③---|
口④④① |④---|
145
④口口③ |--①-|
口⑤②口 |②-③-|
口①⑥口 |④-⑤-|
口口口⑦ |⑥-⑦-|
146
口④口③ |----|
④口③口 |----|
口②口① |①-②-|
②口①口 |③-④-|
147
④口③口 |----|
口④口③ |----|
②口①口 |①-②-|
口②口① |③-④-|

accuracy: 100%
最終更新:2022年04月17日 15:35