アットウィキロゴ
Hopeful Frontier!!!
cosMo@暴走P

EXTREME

Level: 10.7
BPM: 298
Notes: 1047

1
口口口口 |----|
口口口口 |----|
口口口口 |----|
口口口口 |----|
2
口口口口 |①---|
③口④口 |②---|
口①口② |③---|
口口口口 |④---|
3
①口②口 |①---|
口③口口 |②-③-|
④口口口 |④---|
口⑤口口 |⑤---|
4
⑧⑦口口 |①-②-③-|
⑩⑨⑥⑤ |④-⑤-⑥-|
⑫⑪④③ |⑦-⑧-⑨-|
口口②① |⑩-⑪-⑫-|
5
口口口① |①---|
口口口口 |----②③④⑤|
口口口口 |----|
②③④⑤ |----|
6
③口①口 |①---|
口口口① |②-③-|
口口②③ |----|
口口口口 |----|
7
口①口③ |①---|
①口口口 |②-③-|
③②口口 |----|
口口口口 |----|
8
⑧口⑦⑨ |①-②-③-|
口口⑥⑤ |④-⑤-⑥-|
口口④③ |⑦-⑧-|
口口②① |--⑨-|
9
口口口口 |--①-|
口⑥口口 |②-③-|
②⑤口④ |④-⑤-|
①口口③ |⑥---|
10
③口①口 |①---|
口口③① |②-③-|
口口口口 |----|
口②口口 |----|
11
口①口③ |①---|
①③口口 |②-③-|
口口口口 |----|
口口②口 |----|
12
口口⑤口 |①---|
口口口④ |②-③-|
口口③① |④-⑤-|
口②口口 |----|
13
③③口口 |①-②-|
口④④口 |--③-|
②②口口 |--④-|
口⑤⑤① |--⑤-|
14
口口①③ |①---|
口口口① |②-③-|
口口口③ |----|
②口口口 |----|
15
③①口口 |①---|
①口口口 |②-③-|
③口口口 |----|
口口口② |----|
16
口⑦口口 |①-②-③-|
口③②① |④-⑤-⑥-|
口口口⑧ |----|
④⑤⑥⑧ |⑦-⑧-|
17
④口口③ |----|
④口②口 |①-②-|
口①口口 |③-④-|
口口口口 |----|
18
口②③口 |①---|
口口口口 |②-③-|
①口口口 |----|
①①口③ |----|
19
③口口① |①---|
口口①① |②-③-|
口口口口 |----|
口③②口 |----|
20
口口口④ |①---|
③口口④ |②---|
③①②② |③---|
①口口口 |④---|
21
①②③口 |①--②-③|
口口口口 |④-⑤-⑥-|
口口口口 |⑦---|
⑦⑥⑤④ |----|
22
⑤口口④ |①---|
③口口② |②-③-④-|
口①①⑥ |⑤-⑥-|
口⑦⑦口 |--⑦-|
23
口①口口 |----|
③口②口 |①---|
①口③口 |②---|
口口口② |③---|
24
④口②③ |①---|
口④口① |②-③-|
口②口⑤ |--④-|
①③⑤口 |--⑤-|
25
口口口口 |----|
口口①口 |--①-|
①口口口 |----|
口口口口 |----|
26
⑤口口④ |①---|
③口口② |②-③-④-|
口①①⑥ |⑤-⑥-|
口⑦⑦口 |--⑦-|
27
口②①口 |----|
口②③③ |①---|
①口口口 |②---|
口口口口 |③---|
28
④口⑤② |①-②-|
口口口口 |--③-|
口④②⑤ |④---|
③口⑥① |⑤-⑥-|
29
口①口口 |--①-|
口③③口 |②---|
①口④口 |③---|
口②口④ |④---|
30
⑤口口④ |①---|
③口口② |②-③-④-|
口①口⑥ |⑤-⑥-|
①⑦⑦口 |--⑦-|
31
口①口口 |----|
③口②④ |①---|
①口③口 |②---|
④口口② |③------------------④|
32
③口①② |----|
口③口口 |①-②-|
口①口④ |--③-|
口②④口 |--④-|
33
口口口口 |----|
①口口口 |----|
①口口口 |①---|
口口口口 |----|
34
口④①⑦ |①-②-|
口⑧口口 |③-④-|
口②⑤口 |⑤-⑥-|
⑥口口③ |⑦-⑧-|
35
②⑧⑦口 |①-②-|
⑥口③⑤ |③-④-|
口口口口 |⑤-⑥-|
口④①口 |⑦-⑧-|
36
口口口口 |①---|
口③③口 |--②-|
②②①① |----|
②口口① |③---|
37
①②③④ |----|
口口口口 |----|
口口口口 |①-②-|
口口口口 |③-④-|
38
口口口口 |①---|
③口口② |--②-|
①口②口 |----|
口①口③ |③---|
39
①①口③ |①---|
口②口③ |--②-|
口②口口 |----|
口口口口 |③---|
40
⑥口⑥口 |①-②-|
口口口口 |③-④-|
⑤口口口 |--⑤-|
①②③④ |--⑥-|
41
口①口② |----|
②③口口 |①---|
口口口① |②---|
口口口③ |③---|
42
④口③口 |①-②-|
口口口口 |③-④-|
⑤⑤口口 |--⑤-|
①⑤②口 |----|
43
口②口口 |①---|
②②①① |--②-|
口口①③ |----|
口口③③ |③---|
44
③口②① |①---|
口口口④ |②---|
②口口口 |③---|
①④口口 |④---|
45
口口口口 |--①-|
①②③口 |②-③-|
⑦⑥⑤④ |④-⑤-|
口口口口 |⑥-⑦-|
46
①①口② |①---|
口口口③ |②-③-|
口口口口 |④-⑤-|
④⑤⑥⑦ |⑥-⑦-|
47
口口口口 |--①-|
③②①口 |②-③-|
④⑤⑥⑦ |④-⑤-|
口口口口 |⑥-⑦-|
48
①③①③ |①---|
口口口口 |②---|
口口口口 |③---|
④②④② |④---|
49
口口③口 |①-②-|
②①口③ |--③-|
②①口口 |----|
口口口口 |----|
50
口口口口 |①---|
②③④⑤ |----|
口口口① |②-③-|
口①口① |④-⑤-|
51
③③口口 |----|
口口口口 |①---|
口②口② |②---|
①口①口 |③---|
52
口口④口 |①-②-|
口⑤口③ |③-④-|
⑥口②口 |⑤-⑥-|
⑧①口⑦ |⑦-⑧-|
53
⑦④口⑧ |①-②-|
③口⑤口 |③-④-|
口②口⑥ |⑤-⑥-|
口口①口 |⑦-⑧-|
54
口③②口 |①---|
③②口② |--②-|
①③①口 |----|
口①口口 |③---|
55
②口口③ |①---|
口③②口 |--②-|
口口③① |----|
口口口① |③---|
56
⑥口⑥口 |①-②-|
口口口口 |③-④-|
⑤口口口 |--⑤-|
①②③④ |--⑥-|
57
口②口② |----|
口口口口 |①---|
口口①① |②---|
③③③③ |③---|
58
⑥⑦⑤口 |①-②-|
⑥③④口 |③-④-|
①②口口 |⑤-⑥-|
口口口口 |--⑦-|
59
口口口① |①---|
口④⑤① |②-③-|
③口口⑥ |--④-|
③口②口 |⑤-⑥-|
60
口③④⑤ |①-②-|
口口口口 |--③-|
口②①口 |④-⑤-|
口⑦⑥口 |⑥-⑦-|
61
口口口口 |①-②-|
②③④口 |③-④-|
⑧⑦⑥⑤ |⑤-⑥-|
①口口口 |⑦-⑧-|
62
①①口② |①---|
口口口③ |②-③-|
口口口口 |④-⑤-|
④⑤⑥⑦ |⑥-⑦-|
63
口口口口 |--①-|
③②①口 |②-③-|
④⑤⑥⑦ |④-⑤-|
口口口口 |⑥-⑦-|
64
①③①③ |①---|
口口口口 |②---|
口口口口 |③---|
④②④② |④---|
65
口口③口 |①-②-|
②①口③ |--③-|
②①⑤口 |----|
口④口口 |④-⑤-|
66
①①口口 |①---|
②口口口 |----|
口口口口 |②---|
口口口口 |----|
67
口口口① |①---|
口口口② |----|
口口口口 |②---|
口口口口 |----|
68
口②口口 |①---|
口口③口 |----|
口④口口 |②---③-|
口①①口 |--④---|
69
口口①① |①---|
②口口② |----|
②口口② |②---|
口口口口 |----|
70
口口口口 |①-②-|
口④①口 |③-④-|
口②⑤口 |⑤-⑥-|
③⑧⑦⑥ |⑦-⑧-|
71
⑤⑥②① |①-②-|
⑦⑧④③ |③-④-|
口口口口 |⑤-⑥-|
口口口口 |⑦-⑧-|
72
口口口口 |①-②-|
口口口口 |③-④-|
⑦⑧④③ |⑤-⑥-|
⑤⑥②① |⑦-⑧-|
73
①②③④ |①-②-|
口口口⑤ |③-④-|
口口口⑥ |⑤-⑥-|
口口⑧⑦ |⑦-⑧-|
74
⑦⑧⑨⑩ |①②③-|
⑥⑤⑫⑪ |④⑤⑥-|
③④口口 |⑦⑧⑨-|
②①口口 |⑩⑪⑫-|
75
⑪⑫口口 |①②③-|
⑩⑨口口 |④⑤⑥-|
⑦⑧①② |⑦⑧⑨-|
⑥⑤④③ |⑩⑪⑫-|
76
口口①② |①②③-|
口口④③ |④⑤⑥-|
⑪⑫⑤⑥ |⑦⑧⑨-|
⑩⑨⑧⑦ |⑩⑪⑫-|
77
②③④口 |①---|
口①口口 |②---|
口口口口 |③---|
口口口口 |④---|
78
口口口口 |①---|
④③口口 |②---|
②⑤口① |③-④-|
口⑤③④ |--⑤-|
79
②③④⑤ |--①-|
口口口① |②-③-|
⑥口口口 |④-⑤-|
口口口口 |--⑥-|
80
口口口口 |----|
②①口口 |①-②-|
口③④⑤ |③-④-⑤-|
口⑧⑦⑥ |⑥-⑦-⑧-|
81
口④③② |①-②-|
口④③② |--③-|
口口口口 |--④-|
①口口口 |----|
82
⑤口口⑥ |①-②-|
⑤口口口 |③-④-|
①②③④ |--⑤-|
⑥口口口 |--⑥-|
83
口①③口 |--①-|
口口口② |--②-|
②口口口 |③---|
口③口① |----|
84
④⑤⑥口 |①---②-|
①②③口 |--③---|
口③②① |④---⑤-|
口⑥⑤④ |--⑥---|
85
口口口① |①---②-|
③⑥⑦② |--③---|
②⑤④③ |④-⑤-|
①口口口 |⑥-⑦-|
86
②①③口 |①-②-|
口口口④ |--③-|
口口⑤口 |----|
③口口② |④-⑤-|
87
口④口口 |①-②-|
⑤⑤③口 |--③-|
②④口口 |--④-|
口①③口 |--⑤-|
88
③口②③ |①-②-|
口口口口 |----|
口口口① |③---|
④口口④ |④---|
89
口⑥⑤口 |①-②-|
口口②① |③-④-|
③④口口 |⑤-⑥-|
口⑦⑧口 |⑦-⑧-|
90
①口口③ |①-②-|
口⑤⑦口 |③-④-|
口⑧②口 |⑤-⑥-|
⑥口口④ |⑦-⑧-|
91
⑥②②口 |①-②-|
⑤口口① |--③-|
④口口口 |--④-|
口③③口 |⑤-⑥-|
92
口口口口 |--①-|
口①①口 |----|
口③②口 |②---|
③口口② |③---|
93
口⑧⑥口 |①-②-|
④⑦⑤② |③-④-|
③口口① |⑤-⑥-|
口口口口 |⑦-⑧-|
94
②口口③ |①---|
口口口口 |②---|
口口口口 |--③-|
口①①口 |----|
95
口口口口 |①---|
口②口② |----|
口口②口 |②---|
①②口口 |----|
96
①⑥①口 |①---|
⑦口④口 |②-③-|
口⑤口② |④-⑤-|
口口③口 |⑥-⑦-|
97
口口口口 |----|
口口口口 |----|
口口口口 |--①-|
③①②口 |②-③-|
98
⑥②⑤① |①-②-③-|
口⑩口⑨ |④-⑤-⑥-|
⑧④⑦③ |⑦-⑧-⑨-|
口⑫口⑪ |⑩-⑪-⑫-|
99
⑩⑥⑨⑤ |①-②-③-|
②口①口 |④-⑤-⑥-|
⑫⑧⑪⑦ |⑦-⑧-⑨-|
④口③口 |⑩-⑪-⑫-|
100
口口口口 |①-②-|
④⑦⑤① |③-④-|
口⑧口口 |⑤-⑥-|
口③⑥② |⑦-⑧-|
101
②④③① |①-②-|
口口口口 |③-④-|
⑤口⑦口 |⑤-⑥-|
口⑥口⑧ |⑦-⑧-|
102
④口⑤③ |①---|
①口②① |②-③-|
⑤②口口 |--④-|
③口④口 |--⑤-|
103
口①口口 |--①-|
口②口② |--②-|
口口口① |----|
口②口② |----|
104
①③口① |①---|
口口③口 |②---|
②口口口 |③---|
口④②④ |④---|
105
口口②③ |----|
①口口口 |①---|
口②口③ |②---|
①口口口 |③---|
106
⑦⑥⑧口 |①-②-|
口①⑤⑧ |③--④---⑤|
口口②口 |--⑥-|
口③④口 |⑦-⑧-|
107
口口口口 |--①-|
⑦③⑥口 |②-③-|
口②口④ |④-⑤-|
①⑤口口 |⑥-⑦-|
108
⑧④⑤① |①-②-③-|
口⑫口⑨ |④-⑤-⑥-|
②⑩口⑪ |⑦-⑧-⑨-|
⑥口③⑦ |⑩-⑪-⑫-|
109
⑫⑧⑨⑤ |①-②-③-|
④口③口 |④-⑤-⑥-|
⑥口①口 |⑦-⑧-⑨-|
⑩②⑦⑪ |⑩-⑪-⑫-|
110
口⑫口⑨ |①-②-③-|
⑧④⑦① |④-⑤-⑥-|
⑩②⑤③ |⑦-⑧-⑨-|
口⑥⑪口 |⑩-⑪-⑫-|
111
④口①口 |①-②-③-|
⑫⑧⑪⑤ |④-⑤-⑥-|
口⑥⑨⑦ |⑦-⑧-⑨-|
②⑩口③ |⑩-⑪-⑫-|
112
口口②① |①---|
口口口口 |----|
口口口口 |②---|
口口口口 |----|
113
①②口口 |①---|
口口口口 |----|
口口口口 |②---|
口口口口 |----|
114
口口口口 |①---|
口①①口 |----|
口②②口 |②---|
口口口口 |----|
115
口口口口 |①---|
①口口② |----|
口口口口 |②---|
口口口口 |----|
116
口①①口 |①---|
口口口口 |----|
口口口口 |----|
口口口口 |----|
117
口口口口 |----|
口口口口 |----|
口口口口 |----|
口口口口 |----|
118
①口口口 |①---|
①口口口 |----|
口口口口 |----|
①口口口 |----|
119
口①口口 |①---|
口①口口 |----|
口口口口 |----|
口①口口 |----|
120
口③①口 |①---|
口口①口 |--②-|
口口口② |----|
口口①口 |③---|
121
③口口口 |①---|
③口口② |--②-|
③口口口 |----|
①③③③ |③---|
122
口⑤⑤① |①-②-|
口口②口 |③-④-|
口③⑥⑥ |--⑤-|
④口口口 |--⑥-|
123
口口口口 |----|
①口②③ |①---|
①口口口 |②---|
口口②③ |③---|
124
⑤①⑤口 |①-②-|
口②口口 |③-④-|
口③口⑥ |--⑤-|
口④口口 |--⑥-|
125
口口口④ |①---|
①口①口 |②-③-|
③口③口 |--④-|
⑤口⑤② |⑤---|
126
①①口口 |①---|
④④口③ |②---|
口②口③ |③---|
口②口口 |④---|
127
④⑤⑥⑦ |--①-|
口口③口 |②-③-|
口口②口 |④-⑤-|
口口①口 |⑥-⑦-|
128
口口口口 |①---|
口口口口 |②-③-|
①③口⑥ |④-⑤-|
⑤⑦④② |⑥-⑦-|
129
①口口口 |--①-|
口②⑤④ |②-③-|
⑦⑥③口 |④-⑤-|
口口口口 |⑥-⑦-|
130
④②③① |①---|
口口口口 |②---|
口口口口 |③---|
④②③① |④---|
131
口口口口 |①-②-|
③口口口 |--③-|
③口①② |----|
口口口口 |----|
132
口口口口 |①-②-|
⑦⑤③① |③-④-|
口口口口 |⑤-⑥-|
⑧⑥④② |⑦-⑧-|
133
①③⑤⑦ |①-②-|
口口口口 |③-④-|
②④⑥⑧ |⑤-⑥-|
口口口口 |⑦-⑧-|
134
口口口口 |①-②-|
⑧⑤③① |③-④-|
⑦口口口 |⑤-⑥-|
口⑥④② |⑦-⑧-|
135
①②③④ |①-②-|
口口口⑤ |③-④-|
口口口⑥ |⑤-⑥-|
口口⑧⑦ |⑦-⑧-|
136
⑦⑧⑨⑩ |①②③-|
⑥⑤⑫⑪ |④⑤⑥-|
③④口口 |⑦⑧⑨-|
②①口口 |⑩⑪⑫-|
137
⑪⑫口口 |①②③-|
⑩⑨口口 |④⑤⑥-|
⑦⑧①② |⑦⑧⑨-|
⑥⑤④③ |⑩⑪⑫-|
138
口口①② |①②③-|
口口④③ |④⑤⑥-|
⑪⑫⑤⑥ |⑦⑧⑨-|
⑩⑨⑧⑦ |⑩⑪⑫-|
139
③④⑤⑥ |①②③-|
②①口⑦ |④⑤⑥-|
口口口口 |⑦---|
口口口口 |----|
140
口口口口 |①---|
⑤③⑤口 |②-③-|
②④口② |--④-|
口①①口 |⑤---|
141
③④②① |①-②-|
口口口口 |--③-|
⑤口口口 |④---|
口口口口 |⑤---|
142
⑧口⑧⑦ |①-②-|
④口④③ |③-④-|
口①②⑤ |⑤-⑥-|
①④⑥① |⑦-⑧-|
143
口口口口 |----|
口①口口 |①---|
①口②口 |②---|
③③口② |③---|
144
口③②口 |①---|
④口口① |②---|
④口口口 |③---|
口口口口 |④---|
145
④口口③ |--①-|
口⑤②口 |②-③-|
口①⑥口 |④-⑤-|
口口口⑦ |⑥-⑦-|
146
口④口④ |----|
③口③口 |----|
口②口② |①-②-|
①口①口 |③-④-|
147
①口①口 |----|
口②口② |----|
③口③口 |①-②-|
口④口④ |③-④-|

accuracy: 100%
最終更新:2022年04月17日 17:51