アットウィキロゴ
WELCOME TO MOTOWN PARK
OSTER project

EXTREME

Level: 9.8
BPM: 165
Notes(hold): 798(51)

1
③②□② |①---|
⑤③④□ |②---|
□⑤□④ |③-④-|
①□①□ |⑤-⑥-|

□□□□
□□□□
>━⑥□
□>━⑥
2
⑤③⑤③ |--①-|
□□□□ |②-③-|
②□1④ |--④-|
□□□1 |⑤---|
3
③②□② |①---|
⑤③④□ |②---|
□⑤□④ |③-④-|
①□①□ |⑤-⑥-|

□□□□
□□□□
>━⑥□
□>━⑥
4
□③②① |--①-|
□③⑥□ |②-③-|
④⑤1④ |--④-|
□□□1 |⑤-⑥-|
5
③②□② |①---|
⑤③④□ |②---|
□⑤□④ |③-④-|
①□①□ |⑤-⑥-|

□□□□
□□□□
>━⑥□
□>━⑥
6
⑤③⑤③ |--①-|
□□□□ |②-③-|
②□1④ |--④-|
□□□1 |⑤---|
7
⑦□□⑥ |①-②-|
④□⑦① |③-④-|
□⑦②□ |--⑤-|
⑤③③⑦ |⑥-⑦-|
8
□□□□ |----|
□③□③ |①---|
②□②□ |②---|
④①①④ |③-④-|
9
⑦①⑥⑧ |--①②|
⑦□②⑧ |③④⑤⑥|
⑪③□⑫ |⑦-⑧-|
⑨⑤④⑩ |⑨⑩⑪⑫|
10
③③□□ |①-②-|
□①①□ |③-④-|
□□④□ |⑤-⑥-|
□□②□ |⑦-⑧-|

□□⑤□
⑧□⑦⑤
⑥□□□
⑧⑥□□
11
⑤⑤③③ |①-②-|
□⑦⑦□ |③-④-|
⑥②□④ |⑤-⑥-|
□□⑧① |⑦-⑧-|
12
□□③③ |①-②-|
□□□□ |③-④-|
□④②□ |⑤-⑥-|
①①□□ |⑦-⑧-|

⑥□□□
⑥□⑦□
⑧□□⑤
□⑧□⑤
13
⑦④□⑤ |①-②-|
④⑧⑥① |③-④-|
⑦②③⑤ |⑤-⑥-|
②□□③ |⑦-⑧-|
14
□□□□ |①---|
>━━① |②-③-|
□□□□ |④-⑤-|
□□□① |⑥-⑦-|

⑤□□④
>━⑦2
□□③□
⑥④②□
15
□□□⑦ |①-②-|
□⑥2□ |③-④-|
④⑧□⑤ |⑤-⑥-|
⑦⑤③① |⑦-⑧-|
16
①━<□ |①---|
□□□□ |②-③-|
□□□□ |④-⑤-|
□□□① |⑥-⑦-|

2□□□
>━③□
②□□□
□④②□

□□□□
□□5□
□⑦□□
⑥□□□
17
□□□□ |①---|
□①━< |②---|
□□□□ |③---|
□□□① |④---|

>━②□
□2□□
□□□□
□□②□

□□3□
>━③□
□□□□
□③□□

□④━<
□□4□
□□□□
④□□□
18
□1□□ |①---|
□□□□ |②-③-|
①③□□ |④-⑤-|
□□②① |⑥-⑦-|

>━⑦□
□⑥⑤□
□□□④
⑥④□□
19
□□2□ |①-②-|
④>━⑤ |③-④-|
□□□□ |⑤---|
□⑤③① |⑥---|

□□□□
□□□6
□⑥□□
⑥□□□
20
③①③① |①-②-|
□□□□ |--③-|
③□□① |④---|
□□②□ |⑤-⑥-|

□□□⑥
□□□□
□□⑥□
⑤④□□
21
□①②□ |--①-|
①□□② |②---|
③━━< |③---|
□□□□ |④---|

□□□④
□□□□
4□□□
□□□□
22
⑦⑤③□ |①-②-|
⑧⑥④□ |③-④-|
□②□□ |⑤-⑥-|
⑦⑤③① |⑦-⑧-|
23
□⑦⑤③ |①-②-|
□⑧⑥④ |③-④-|
②□□□ |⑤-⑥-|
⑦⑤③① |⑦-⑧-|
24
⑦⑤③□ |①-②-|
⑧⑥④□ |③-④-|
□②□□ |⑤-⑥-|
⑦⑤③① |⑦-⑧-|
25
□⑦⑤③ |①-②-|
□⑧⑥④ |③-④-|
②□□□ |⑤-⑥-|
⑦⑤③① |⑦-⑧-|
26
>━⑦□ |①---|
□⑥⑤□ |②-③-|
①③□④ |④-⑤-|
⑥④②① |⑥-⑦-|
27
□□2□ |①-②-|
④>━⑤ |③-④-|
□□□□ |⑤---|
□⑤③① |⑥---|

□□□□
□□□6
□⑥□□
⑥□□□
28
④④⑦⑦ |①-②-|
④②⑤⑦ |③-④-|
□⑥③① |--⑤-|
□□①① |⑥-⑦-|
29
①①□□ |--①-|
⑤□□□ |②-③-|
⑤□④④ |④---|
③③②② |⑤---|
30
⑥⑥②① |①②③④|
□□④③ |⑤-⑥-|
□□□⑤ |⑦-⑧-|
□□□□ |--⑨-|

□□⑨⑨
□⑧□□
⑨⑨⑧□
⑦⑦□□
31
①□□□ |--①-|
□□④⑤ |②-③-|
□□⑤④ |④---|
□③□② |⑤---|
32
①②□□ |①②③④|
③④⑥□ |⑤-⑥⑦|
⑤⑦□□ |⑧-⑨-|
□□□□ |--⑩-|

⑩⑩⑨⑨
□□□□
□□⑩⑩
⑨⑨⑧□
33
□□□□ |--①-|
④③①① |②---|
③④□□ |③---|
□□②② |④---|
34
□□②① |①②③④|
□□④③ |⑤-⑥-|
⑥□□⑤ |⑦-⑧-|
□□□□ |--⑨-|

⑧⑧⑨⑨
□⑦□□
□□□□
⑨⑨⑧⑧
35
⑤□□⑤ |--①-|
①③④② |②-③-|
③①②④ |④---|
□□□□ |⑤-⑥-|

∨□□∨
┃□□┃
┃□□┃
⑥□□⑥
36
□□□□ |----|
□③③□ |①---|
□②②□ |②---|
□①①□ |③-④-|

∨□□∨
┃□□┃
④□□④
4□□4
37
□□□□ |----|
□③③□ |①---|
■②②■ |②---|
□①①□ |③---|
38
②□□□ |①---|
□□□□ |②③④⑤|
1⑤④1 |⑥-⑦⑧|
□①①③ |-⑨⑩⑪|

□□□⑥
⑪⑦⑧□
□□□⑩
⑨□□□
39
③①①② |①---|
□⑤④□ |②---|
②④⑥□ |③-④-|
□②□□ |⑤-⑥-|
40
①□□② |----|
□③④□ |①---|
□⑤③① |②-③-|
□□①□ |④-⑤-|
41
□②①□ |--①-|
③⑦□□ |②-③-|
④□□□ |④-⑤-|
□⑤⑥□ |⑥-⑦-|
42
□⑧④□ |①-②-|
⑦□□③ |③-④-|
□⑥②□ |⑤-⑥-|
⑤□□① |⑦-⑧-|
43
②□□② |①---|
③②②□ |②---|
②⑤④② |③-④-|
□①①⑥ |⑤-⑥-|
44
□□□① |----|
□□□② |①---|
①③④□ |②-③-|
⑤①□□ |④-⑤-|
45
①□□□ |--①-|
④③②□ |②③④-|
□□□□ |⑤-⑥-|
□□□□ |⑦-⑧-|

⑧⑧□□
□□□□
□⑥□□
⑦□⑧⑤
46
□□□□ |--①-|
□□□③ |②-③-|
□□②□ |④-⑤-|
□①□□ |⑥---|

□□⑤□
□□□□
□□□□
>━⑥④
47
□□□□ |①---|
□□□□ |②---|
①><① |③---|
□□1□ |④-⑤-|

>━③□
②><②
2□□2
□□□□

□③━<
3□□3
□□□□
□□□□

⑤44⑤
□④④□
□□□□
□□□□
48
□⑤□□ |--①-|
□□□□ |②③④-|
②③④□ |⑤-⑥⑦|
⑧⑦⑥① |⑧---|
49
□□①② |①②③④|
□□③④ |⑤⑥⑦⑧|
□□⑤⑥ |⑨-⑩-|
□□⑦⑧ |--⑪-|

⑨□⑪□
□⑩□□
⑩□□□
□⑪□□
50
□①□⑧ |--①-|
⑤□②⑩ |②③④⑤|
⑦③⑨□ |⑥⑦⑧⑨|
④□⑥□ |⑩---|
51
②①□□ |①②③④|
④③□□ |⑤⑥⑦⑧|
⑥⑤□□ |⑨-⑩-|
⑧⑦□□ |--⑪-|

□⑪□⑨
□□⑩□
□□□⑩
□□⑪□
52
□⑤□□ |--①-|
①③④□ |②-③-|
□④□□ |④---|
□□⑤② |⑤---|
53
①□⑧⑧ |①②-③|
②⑦□③ |④-⑤⑥|
⑧⑤⑦④ |--⑦-|
⑧⑥□□ |--⑧-|
54
①④④□ |--①-|
□□②□ |②---|
⑤□□□ |③---|
⑤③③② |④-⑤-|
55
□□□□ |----|
④□□③ |①---|
④□②□ |②---|
④①□□ |③-④-|
56
④□□③ |----|
④□②□ |①---|
④①□□ |②---|
④□□□ |③-④-|
57
□□④□ |--①-|
□□⑦③ |②-③-|
□⑥②□ |④-⑤-|
□□⑤① |⑥-⑦-|
58
⑤①□□ |①-②-|
□④⑧□ |③-④-|
③⑨□□ |⑤-⑥-|
⑦②⑩⑥ |⑦⑧⑨⑩|
59
③□□② |①---|
①⑤④① |②---|
②④⑥□ |③-④-|
□②□□ |⑤-⑥-|
60
⑩②①□ |--①②|
⑪□□⑦ |③④⑤⑥|
⑥⑧⑨③ |⑦-⑧-|
⑧⑤④⑦ |⑨-⑩⑪|
61
□①③⑤ |①②③④|
□②④⑥ |⑤⑥⑦-|
□□□□ |⑧-⑨-|
⑦□□□ |⑩-⑪-|

□⑩□□
⑩⑪□□
□⑧□⑧
□⑨⑨□
62
□⑧④□ |①-②-|
⑦□□③ |③-④-|
□⑥②□ |⑤-⑥-|
⑤□□① |⑦-⑧-|
63
②□□② |①---|
□②②□ |②③④⑤|
②⑤③② |⑥⑦⑧-|
④①①□ |⑨⑩⑪-|

□⑪⑥□
⑦□□⑨
□□□□
□□⑩⑧
64
①⑥⑥② |--①-|
□□□③ |②---|
□④⑤① |③-④-|
⑥②□□ |⑤-⑥-|
65
①□□□ |--①-|
④③②□ |②③④-|
□□□□ |⑤-⑥-|
□□□□ |⑦-⑧-|

⑧⑧□□
□□□□
□⑥□□
⑦□⑧⑤
66
□□□□ |--①-|
□□□③ |②-③-|
□□②□ |④-⑤-|
□①□□ |⑥---|

□□⑤□
□□□□
□□□□
>━⑥④
67
□□□□ |①---|
□□□□ |②---|
①><① |③---|
□□1□ |④-⑤-|

>━③□
②><②
2□□2
□□□□

□③━<
3□□3
□□□□
□□□□

⑤44⑤
□④④□
□□□□
□□□□
68
□⑤□□ |--①-|
□□□□ |②③④-|
②③④□ |⑤-⑥⑦|
⑧⑦⑥① |⑧---|
69
□□□□ |①---|
□□□□ |②---|
①><① |③---|
□□□□ |④-⑤-|

>━③□
②><②
2□□2
□□□□

□③━<
3□□3
□□□□
□□□□

⑤44⑤
□④④□
□□□□
□□□□
70
□□⑥□ |--①-|
④□□□ |②-③-|
□①□□ |④-⑤-|
⑦⑤③② |⑥-⑦-|
71
□□□□ |①---|
□□□□ |②---|
①><① |③---|
□□□□ |④-⑤-|

>━③□
②><②
2□□2
□□□□

□③━<
3□□3
□□□□
□□□□

⑤44⑤
□④④□
□□□□
□□□□
72
⑥④□⑤ |--①-|
⑩⑨⑧⑦ |②-③-|
①②③□ |④-⑤⑥|
①②③□ |⑦⑧⑨⑩|
73
⑥⑥⑩⑩ |①②③④|
□⑨□□ |-⑤-⑥|
②□⑧① |--⑦⑧|
⑤④③⑦ |⑨-⑩-|
74
③□⑨⑨ |①②-③|
①□⑧⑧ |-④-⑤|
□⑤⑦⑦ |⑥-⑦-|
④②⑥⑥ |⑧-⑨-|
75
①①□∨ |----|
┃□□┃ |①---|
┃□□┃ |----|
∧□①① |----|
76
1□□□ |----|
□①□□ |--①②|
□□②□ |③---|
□③□1 |----|
最終更新:2021年05月25日 15:55