アットウィキロゴ
Snow Goose [ 2 ]
Mutsuhiko Izumi

EXTREME

Level: 10.4
BPM: 200
Notes(hold): 741(68)

1
口口口口 |----|
口口口口 |----|
口口口口 |----|
口口口口 |----|
2
口口口⑤ |①②③-|
⑦⑧⑨⑩ |④-⑤-|
⑥④口口 |⑥---|
①②③口 |⑦⑧⑨⑩|
3
④口口⑥ |①②③-|
⑧⑨⑩⑪ |④-⑤-|
口⑤⑦口 |⑥-⑦-|
①②③口 |⑧⑨⑩⑪|
4
⑥口口⑤ |①②③-|
⑧⑨⑩⑪ |④-⑤-|
④口口⑦ |⑥-⑦-|
①②③口 |⑧⑨⑩⑪|
5
⑤①②④ |①--②|
口口口口 |--③-|
口③③口 |-④--|
①口口② |⑤---|
6
⑧⑦口口 |①--②|
⑨口⑤⑥ |--③-|
③口④口 |-④⑤⑥|
口①口② |⑦⑧⑨-|
7
口口⑤⑤ |①②③-|
⑦⑧⑨⑩ |④-⑤-|
⑥④⑥口 |⑥---|
①②③口 |⑦⑧⑨⑩|
8
④口⑥⑥ |①②③-|
⑧⑨⑩⑪ |④-⑤-|
口⑤⑤口 |⑥-⑦-|
①②③⑦ |⑧⑨⑩⑪|
9
②口④口 |①-②-|
口⑥⑦⑧ |③-④-|
口⑤⑤口 |⑤---|
①口③口 |⑥⑦⑧-|
10
①口口② |①--②|
④口口⑤ |--③-|
④③③⑤ |-④--|
口①②口 |⑤---|
11
口②①③ |①--②|
口口⑦口 |--③-|
④⑤⑧⑨ |-④⑤⑥|
②⑥③① |⑦⑧⑨-|
12
①②③口 |①-②-|
④<口④ |③-④-|
口口口口 |----|
口口口口 |----|
13
口口口口 |①-②-|
①口口口 |③-④-|
④口>④ |----|
口③②① |----|
14
①②③口 |①-②-|
④<口④ |③-④-|
口口口① |----|
口口口口 |----|
15
⑧⑩⑨⑦ |①-②-|
①⑫⑪口 |③-④-|
④⑥⑤② |⑤⑥⑦⑧|
③口口① |⑨⑩⑪⑫|
16
口口口口 |①-②-|
口口口口 |③-④-|
④口>④ |----|
口③②① |----|
17
①②③口 |①-②-|
④<口④ |③-④-|
口口口① |----|
口口口口 |----|
18
口④<④ |①-②-|
①口口口 |③-④-|
口③②① |----|
口口口口 |----|
19
口①口口 |①②③④|
口②①口 |⑤⑥⑦⑧|
口④③口 |⑨⑩⑪⑫|
⑧⑥⑤⑦ |⑬⑭⑮⑯|

⑭⑯⑮⑬
⑫口口⑪
⑩口口⑨
口口口口
20
口口口口 |①---|
口口V口 |②-③-|
口②①口 |----|
③口<口 |④---|

口口口口
口口>④
口口②口
口口口口
21
V口口口 |①---|
口V口① |②---|
①④口口 |③---|
①口③② |④---|

口口口口
口口口口
④口口口
口口口口
22
②③>① |①---|
口口V① |--②-|
口①②口 |----|
③口口口 |③---|

口口口②
口口口口
口口③口
口口口口
23
口口口② |①---|
口口口③ |②---|
口口口④ |③---|
口①口< |④---|
24
V③口V |①---|
①②①② |--②-|
口①②口 |----|
口①③口 |③---|

口口口口
②口口③
口口口口
口口口口
25
口口①口 |①---|
②∧口 |--②-|
口①口口 |----|
②③③口 |③---|

口口②口
口③口口
口口口口
口口口口
26
③口④② |①---|
口口口口 |②---|
口①口< |③---|
口口口口 |④---|
27
口①口口 |①---|
口∧口口 |----|
口①口② |②---|
口口口∧ |----|

口②口口
口口口口
口口口口
口口口口
28
口口口口 |①---|
口口V口 |②-③-|
口②①① |----|
③口<口 |④---|

口口口口
口口>④
口口②口
口口口口
29
V口口口 |①---|
口口口① |②---|
①④⑤口 |③---|
①口③② |④-⑤-|

口口口口
口口口口
④口口口
口口口口
30
①②①② |①---|
∧∧∧∧ |--②-|
口口③③ |----|
口口口口 |③---|

②③②③
口口口口
口口口口
口口口口
31
②口口口 |①---|
③口①口 |②---|
④⑤⑥⑦ |③---|
口>口① |④⑤⑥⑦|

口口口口
口口口口
口口口口
口口口④
32
口①①< |①---|
口∧>② |--②-|
口口口口 |----|
口口口口 |----|

口②②口
口口口口
口口口口
口口口口
33
口口口口 |①---|
口口口① |--②-|
V②<口 |----|
①①<口 |----|

口口口口
口口口口
口口口口
②②口口
34
①①③⑤ |①-②-|
口②④⑥ |③-④-|
∧①⑦口 |⑤-⑥-|
口口⑧口 |⑦-⑧-|
35
①①>② |①---|
口∧口口 |--②-|
口②口口 |----|
口①口口 |----|

口②口口
口口口口
口口口口
口口口口
36
口口口① |①-②-|
口⑥口① |--③-|
口⑤V② |--④-|
④口③∧ |⑤-⑥-|

口口口口
口口口口
口口口③
口口④口
37
①口<② |①---|
口口口③ |②③④⑤|
口口口④ |----|
口口口⑤ |----|
38
①口口口 |①-②-|
①口⑥口 |--③-|
②V⑤口 |--④-|
∧③口④ |⑤-⑥-|

口口口口
口口口口
③口口口
口④口口
39
②⑪>① |①---|
③口口⑥ |②③④⑤|
④⑦口⑩ |⑥-⑦-⑧-|
⑤⑨口⑧ |⑨-⑩-⑪-|

口口口⑥
口口口口
口口口口
口口口口
40
口口V口 |①-②-|
口①②口 |--③-|
口口V口 |--④-|
口口③口 |⑤-⑥-|

口口口口
口⑥③口
口⑤口口
④口④口
41
①口<② |①---|
口口口③ |②③④⑤|
口口口④ |----|
口口口⑤ |----|
42
①口口⑤ |①②③④|
②④①口 |⑤⑥⑦⑧|
口口口⑦ |⑨⑩⑪⑫|
⑥⑧③口 |⑬⑭⑮⑯|

⑯⑭⑪口
口口口⑮
⑫⑩⑨口
口口口⑬
43
口口口⑤ |①②③④|
②④①口 |⑤⑥⑦⑧|
口>⑨⑦ |⑨---|
⑥⑧③口 |----|
44
①<口⑥ |①--②|
③④口⑤ |③-④-|
口口①口 |⑤-⑥-|
⑧⑦口口 |⑦-⑧-|

②口口口
口口口口
口口口口
口口口口
45
⑦⑧⑨⑩ |①--②|
口口③④ |③-④-|
⑥⑤口口 |⑤-⑥-|
口口>① |⑦⑧⑨⑩|

口口口口
口口口口
口口口口
口口口②
46
⑦⑧⑨⑩ |①--②|
①<⑤⑥ |③-④-|
口④③口 |⑤-⑥-|
口口口口 |⑦⑧⑨⑩|

口口口口
②口口口
口口口口
口口口口
47
⑬⑭⑮⑯ |①②③④|
⑨⑩⑪⑫ |⑤⑥⑦⑧|
⑧⑦⑥⑤ |⑨⑩⑪⑫|
①②③④ |⑬⑭⑮⑯|
48
⑦⑧⑨⑩ |①--②|
口口⑤⑥ |③-④-|
口口④③ |⑤-⑥-|
①<口口 |⑦⑧⑨⑩|

口口口口
口口口口
口口口口
②口口口
49
⑦⑧⑨⑩ |①--②|
口口口口 |③-④-|
①<⑤⑥ |⑤-⑥-|
口口④③ |⑦⑧⑨⑩|

口口口口
口口口口
②口口口
口口口口
50
口口口口 |①-②-|
①③②口 |--③-|
口口④④ |--④-|
③⑤口② |--⑤-|
51
②⑩①③ |①②③④|
⑥⑫⑦⑤ |⑤⑥⑦⑧|
④⑭⑨⑪ |⑨⑩⑪⑫|
⑧⑯⑮⑬ |⑬⑭⑮⑯|
52
⑥口>① |①--②|
⑤口④③ |③-④-|
口口⑦口 |⑤-⑥-|
口口口⑦ |⑦---|

口口口②
口口口口
口口口口
口口口口
53
⑦⑧⑨⑩ |①--②|
口口③④ |③-④-|
⑥⑤口口 |⑤-⑥-|
①<口口 |⑦⑧⑨⑩|

口口口口
口口口口
口口口口
②口口口
54
⑦⑧⑨⑩ |①--②|
①<⑤⑥ |③-④-|
口④③口 |⑤-⑥-|
口口口口 |⑦⑧⑨⑩|

口口口口
②口口口
口口口口
口口口口
55
⑬⑭⑮⑯ |①②③④|
⑨⑩⑪⑫ |⑤⑥⑦⑧|
⑧⑦⑥⑤ |⑨⑩⑪⑫|
①②③④ |⑬⑭⑮⑯|
56
⑦⑧⑨⑩ |①--②|
口口⑤⑥ |③-④-|
口口④③ |⑤-⑥-|
①<口口 |⑦⑧⑨⑩|

口口口口
口口口口
口口口口
②口口口
57
⑦⑧⑨⑩ |①--②|
口口口口 |③-④-|
①<⑤⑥ |⑤-⑥-|
口口④③ |⑦⑧⑨⑩|

口口口口
口口口口
②口口口
口口口口
58
⑤口口口 |①-②-|
④口④② |--③-|
③③口口 |--④-|
①口口② |--⑤-|
59
⑭⑯⑮⑦ |①②③④|
⑫⑩⑬③ |⑤⑥⑦⑧|
⑥⑧⑪⑤ |⑨⑩⑪⑫|
④②⑨① |⑬⑭⑮⑯|
60
口口口口 |①-②-|
口⑥口① |--③-|
口⑤V② |--④-|
④口③∧ |⑤-⑥-|

口口口口
口口口口
口口口③
口口④口
61
①口<② |①---|
口口口③ |②③④⑤|
口口口④ |----|
口口口⑤ |----|
62
①口口口 |①-②-|
①口⑥口 |--③-|
②V⑤口 |--④-|
∧③口④ |⑤-⑥-|

口口口口
口口口口
③口口口
口④口口
63
②⑪>① |①---|
③口口⑥ |②③④⑤|
④⑦口⑩ |⑥-⑦-⑧-|
⑤⑨口⑧ |⑨-⑩-⑪-|

口口口⑥
口口口口
口口口口
口口口口
64
口口V口 |①-②-|
口①②口 |--③-|
口口V口 |--④-|
口口③口 |⑤-⑥-|

口口口口
口⑥③口
口⑤口口
④口④口
65
①口<② |①---|
口口口③ |②③④⑤|
口口口④ |----|
口口口⑤ |----|
66
①口口口 |①②③④|
②①⑥⑤ |⑤⑥⑦⑧|
④③⑧⑦ |⑨⑩⑪⑫|
口口口口 |⑬⑭⑮⑯|

⑯⑮⑭⑬
口口口口
口口口口
⑫⑪⑩⑨
67
⑯⑮⑭⑬ |①②③④|
②①⑥⑤ |⑤⑥⑦⑧|
④③⑧⑦ |⑨⑩⑪⑫|
⑫⑪⑩⑨ |⑬⑭⑮⑯|
68
口口口口 |----|
口口口口 |----|
口口口口 |----|
口口口口 |----|
69
口口口口 |----|
口口口口 |----|
口口口口 |----|
口口口口 |----|
70
口口⑤⑤ |①②③-|
⑦⑧⑨⑩ |④-⑤-|
⑥④⑥口 |⑥---|
①②③口 |⑦⑧⑨⑩|
71
④口⑥⑥ |①②③-|
⑧⑨⑩⑪ |④-⑤-|
口⑤⑤口 |⑥-⑦-|
①②③⑦ |⑧⑨⑩⑪|
72
②口④口 |①-②-|
口⑥⑦⑧ |③-④-|
口⑤⑤口 |⑤---|
①口③口 |⑥⑦⑧-|
73
①口口② |①--②|
④口口⑤ |--③-|
④③③⑤ |-④--|
口①②口 |⑤---|
74
②⑧③⑤ |①②③④|
⑭⑫⑨⑮ |⑤⑥⑦⑧|
⑯⑩⑪⑬ |⑨⑩⑪⑫|
⑥④⑦① |⑬⑭⑮⑯|
75
②⑥①③ |①②③-|
⑦⑧⑨⑩ |④-⑤-|
口口口口 |⑥---|
④⑥口⑤ |⑦⑧⑨⑩|
76
⑤口⑥④ |①②③-|
⑨⑧⑦口 |④-⑤-|
③①②口 |⑥---|
口口⑥口 |⑦⑧⑨-|
77
口④⑦口 |①②③-|
⑧⑧⑦⑤ |④-⑤-|
②⑥①③ |⑥-⑦-|
⑥口口⑤ |⑧---|
78
①口口② |①--②|
⑤口口④ |--③-|
⑤③③④ |-④--|
口①②口 |⑤---|
79
⑤②①④ |①--②|
口⑤④口 |--③-|
口⑤④口 |-④--|
②③③① |⑤---|
80
口口口⑦ |----|
④口⑤⑥ |----|
③⑤口② |①②③④|
口口口① |⑤-⑥⑦|
81
口①①口 |----|
口①口口 |①---|
口口①口 |----|
口①①口 |----|
最終更新:2019年11月04日 16:30