アットウィキロゴ
Sorrows
Asako Yoshihiro

BASIC

Level: 3
BPM: 185
Notes: 168

1
口口口口 |----|
口口口口 |----|
口口口口 |----|
口口口口 |----|
2
口口口口 |----|
口口口口 |----|
口口口口 |----|
口口口口 |----|
3
口口口口 |①---|
口口口口 |----|
口口口口 |----|
口口①口 |----|
4
口口口口 |----|
口口口口 |----|
口口口口 |----|
口口口口 |----|
5
口口口口 |①---|
口口口口 |----|
口口口口 |----|
口①口口 |----|
6
口口口口 |----|
口口口口 |----|
口口口口 |----|
口口口口 |----|
7
口口口口 |①---|
口口口口 |----|
口口①口 |----|
口口口口 |----|
8
口口口口 |----|
口口口口 |----|
口口口口 |----|
口口口口 |----|
9
口口口口 |①---|
口口口口 |----|
口①口口 |----|
口口口口 |----|
10
口口口口 |----|
口口口口 |----|
口口口口 |----|
口口口口 |----|
11
口口口口 |①---|
口口①口 |----|
口口口口 |----|
口口口口 |----|
12
口口口口 |----|
口口口口 |----|
口口口口 |----|
口口口口 |----|
13
口口口口 |①---|
口①口口 |----|
口口口口 |----|
口口口口 |----|
14
口口口口 |----|
口口口口 |----|
口口口口 |----|
口口口口 |----|
15
口口①口 |①---|
口口口口 |----|
口口口口 |----|
口口口口 |----|
16
口口口口 |----|
口口口口 |----|
口口口口 |----|
口口口口 |----|
17
口①口口 |①---|
口口口口 |----|
口口口口 |----|
口口口口 |----|
18
口口口口 |----|
口口口口 |----|
口口口口 |----|
口口口口 |----|
19
口口口口 |----|
口口口口 |----|
口口口口 |----|
口口口口 |----|
20
口口口口 |----|
口口口口 |----|
口口口口 |----|
口口口口 |----|
21
口口口① |①---|
口口口② |----|
口口口口 |②---|
口口口口 |----|
22
口口口口 |①---|
口口口口 |----|
口口口① |②---|
口口口② |----|
23
口口口口 |①---|
口口口口 |----|
口口②口 |②---|
口口①口 |----|
24
口口②口 |①---|
口口①口 |----|
口口口口 |②---|
口口口口 |----|
25
口①口口 |①---|
口②口口 |----|
口口口口 |②---|
口口口口 |----|
26
口口口口 |①---|
口口口口 |----|
口①口口 |②---|
口②口口 |----|
27
口口口口 |①---|
口口口口 |----|
②口口口 |②---|
①口口口 |----|
28
②口口口 |①---|
①口口口 |----|
口口口口 |②---|
口口口口 |----|
29
口口口口 |①---|
口口口口 |----|
口口口② |②---|
口口口① |----|
30
口口口② |①---|
口口口① |----|
口口口口 |②---|
口口口口 |----|
31
口口①口 |①---|
口口②口 |----|
口口口口 |②---|
口口口口 |----|
32
口口口口 |①---|
口口口口 |----|
口口①口 |②---|
口口②口 |----|
33
口口口口 |①---|
口口口口 |----|
口②口口 |②---|
口①口口 |----|
34
口②口口 |①---|
口①口口 |----|
口口口口 |②---|
口口口口 |----|
35
①口口口 |①---|
②口口口 |----|
口口口口 |②---|
口口口口 |----|
36
口口口口 |①---|
口口口口 |----|
①口口口 |②---|
②口口口 |----|
37
口口①口 |①---|
口口口口 |----|
口口口口 |----|
口口口口 |----|
38
口口口口 |①---|
口口①口 |----|
口口口口 |----|
口口口口 |----|
39
口①口口 |①---|
口口口口 |----|
口口口口 |----|
口口口口 |----|
40
口口口口 |①---|
口①口口 |----|
口口口口 |----|
口口口口 |----|
41
口口口口 |①---|
口口口口 |----|
口口①口 |----|
口口口口 |----|
42
口口口口 |①---|
口口口口 |----|
口口口口 |----|
口口①口 |----|
43
口口口口 |①---|
口口口口 |----|
口①口口 |----|
口口口口 |----|
44
口口口口 |①---|
口口口口 |----|
口口口口 |----|
口①口口 |----|
45
口口口口 |①---|
口口口口 |----|
口口口口 |----|
口口口① |----|
46
口口口口 |①---|
口口口口 |----|
口口口① |----|
口口口口 |----|
47
口口口口 |①---|
口口口口 |----|
口①①口 |----|
口口口口 |----|
48
口口口口 |①---|
口①①口 |----|
口口口口 |----|
口口口口 |----|
49
口①①口 |①---|
口②②口 |----|
口口口口 |②---|
口口口口 |----|
50
口口口口 |①---|
口口口口 |----|
口①①口 |②---|
口②②口 |----|
51
口口口口 |①---|
口口口口 |----|
②口口② |②---|
①口口① |----|
52
②口口② |①---|
①口口① |----|
口口口口 |②---|
口口口口 |----|
53
口①①口 |①---|
口②②口 |----|
口口口口 |②---|
口口口口 |----|
54
口口口口 |①---|
口口口口 |----|
口①①口 |②---|
口②②口 |----|
55
口口口口 |①---|
口口口口 |----|
②口口② |②---|
①口口① |----|
56
②口口② |①---|
①口口① |----|
口口口口 |②---|
口口口口 |----|
57
口②①口 |①---|
口口口口 |----|
口口口口 |②---|
口口口口 |----|
58
口口口口 |①---|
口②①口 |----|
口口口口 |②---|
口口口口 |----|
59
口口口口 |①---|
口口口口 |----|
口②①口 |②---|
口口口口 |----|
60
口口口口 |①---|
口口口口 |----|
口口口口 |②---|
口②①口 |----|
61
口口口口 |①---|
口口口口 |----|
口口口口 |②---|
②口口① |----|
62
口口口口 |①---|
口口口口 |----|
②口口① |②---|
口口口口 |----|
63
口口口口 |①---|
②口口① |----|
口口口口 |②---|
口口口口 |----|
64
②口口① |①---|
口口口口 |----|
口口口口 |②---|
口口口口 |----|
65
口口口口 |①---|
口①①口 |----|
口②②口 |----|
口口口口 |②---|
66
口口口口 |----|
口口口口 |----|
口口口口 |----|
口口口口 |----|
67
口口口口 |①---|
②口口② |----|
①口口① |----|
口口口口 |②---|
68
口口口口 |----|
口口口口 |----|
口口口口 |----|
口口口口 |----|
69
口口口口 |①---|
口①①口 |----|
口②②口 |----|
口口口口 |②---|
70
口口口口 |----|
口口口口 |----|
口口口口 |----|
口口口口 |----|
71
口口口口 |①---|
②口口② |----|
①口口① |----|
口口口口 |②---|
72
口口口口 |----|
口口口口 |----|
口口口口 |----|
口口口口 |----|
73
口口口口 |①---|
口口口口 |----|
口口口口 |②---|
口②①口 |----|
74
口口口口 |①---|
口口口口 |----|
口②①口 |②---|
口口口口 |----|
75
口口口口 |①---|
口②①口 |----|
口口口口 |②---|
口口口口 |----|
76
口②①口 |①---|
口口口口 |----|
口口口口 |②---|
口口口口 |----|
77
②口口① |①---|
口口口口 |----|
口口口口 |②---|
口口口口 |----|
78
口口口口 |①---|
②口口① |----|
口口口口 |②---|
口口口口 |----|
79
口口口口 |①---|
口口口口 |----|
②口口① |②---|
口口口口 |----|
80
口口口口 |①---|
口口口口 |----|
口口口口 |②---|
②口口① |----|
81
口口口口 |①---|
口口口口 |----|
口②②口 |②---|
口①①口 |----|
82
口②②口 |①---|
口①①口 |----|
口口口口 |②---|
口口口口 |----|
83
①口口① |①---|
②口口② |----|
口口口口 |②---|
口口口口 |----|
84
口口口口 |①---|
口口口口 |----|
①口口① |②---|
②口口② |----|
85
口口口口 |①---|
口口口口 |----|
口②②口 |②---|
口①①口 |----|
86
口②②口 |①---|
口①①口 |----|
口口口口 |②---|
口口口口 |----|
87
①口口① |①---|
②口口② |----|
口口口口 |②---|
口口口口 |----|
88
口口口口 |①---|
口口口口 |----|
①口口① |----|
口口口口 |----|
89
口口口口 |①---|
口①①口 |----|
口①①口 |----|
口口口口 |----|

accuracy: 100%
最終更新:2022年05月06日 14:00