アットウィキロゴ
Sorrows
Asako Yoshihiro

ADVANCED

Level: 6
BPM: 185
Notes: 414

1
口口口口 |----|
口口口口 |----|
口口口口 |----|
口口口口 |----|
2
口口口口 |----|
口口口口 |----|
口①①口 |①---|
口口口口 |----|
3
①②口① |①---|
口口口口 |----|
口口口口 |----|
口口口口 |②---|
4
口口口口 |----|
口口①口 |①---|
口口②口 |--②-|
口口口口 |----|
5
口口口口 |①---|
口②口口 |----|
口口口口 |----|
①口①口 |②---|
6
口口口口 |----|
口口①口 |①---|
口口②口 |--②-|
口口口口 |----|
7
口②口口 |①---|
口口口口 |----|
口口口口 |----|
①口①口 |②---|
8
口口口① |----|
口口口② |①---|
口口③口 |②---|
口口口口 |③---|
9
口口口口 |①---|
口①口口 |----|
口②口口 |----|
口口口口 |②---|
10
口口口口 |----|
口①①口 |----|
口口口口 |①---|
口口口口 |----|
11
①②口① |①---|
口口口口 |----|
口口口口 |----|
口口口口 |②---|
12
口口①口 |----|
口口②口 |①---|
口口③口 |②---|
口口口口 |③---|
13
口口口口 |①---|
口口口口 |----|
口口②口 |----|
①口①口 |②---|
14
口①口口 |----|
口②口口 |①---|
口③口口 |②---|
口口口口 |③---|
15
口口②口 |①---|
口口③口 |----|
口口口口 |②---|
口①口① |③---|
16
口口口口 |----|
口口口口 |----|
口①口口 |①---|
口口口口 |----|
17
口口口口 |①---|
口口①口 |----|
口口②口 |②---|
口③口口 |③---|
18
口口口③ |①---|
口②口口 |②---|
口口口① |③---|
口口口口 |----|
19
口口口口 |----|
口口口口 |----|
口口口口 |----|
口口口口 |----|
20
口口口口 |----|
口口口口 |----|
②口口① |-①--|
口口口口 |②---|
21
①口口⑤ |①---|
口②口口 |②-③-|
口③口口 |④---|
口④口口 |⑤---|
22
口口口口 |①-②-|
口⑤①口 |③---|
④口②口 |④---|
口口③口 |⑤---|
23
⑥口口① |①-②-|
口口口② |③-④-|
④口口③ |⑤---|
⑤口口口 |⑥---|
24
口口口④ |①-②-|
口①⑤口 |③---|
口②口口 |④---|
口③口口 |⑤---|
25
口口口口 |①---|
口口口② |②---|
口③口① |③---|
口口口④ |④---|
26
口口①口 |①-②-|
口④②口 |③---|
口⑤③口 |④-⑤-|
口⑥口口 |⑥---|
27
口口口口 |①---|
②⑤①口 |②-③-|
③口口口 |④---|
④口口口 |⑤---|
28
口口④口 |①-②-|
口⑤口① |③---|
口口口② |④---|
口口口③ |⑤---|
29
⑤口口① |①---|
口口②口 |②-③-|
口口③口 |④---|
口口④口 |⑤---|
30
口口口口 |①-②-|
口①⑤口 |③---|
口②口④ |④---|
口③口口 |⑤---|
31
①口口⑥ |①-②-|
②口口口 |③-④-|
③口口④ |⑤---|
口口口⑤ |⑥---|
32
④口口口 |①-②-|
口⑤①口 |③---|
口口②口 |④---|
口口③口 |⑤---|
33
口口口口 |①---|
②口口口 |②---|
①口③口 |③---|
④口口口 |④---|
34
口①口口 |①-②-|
口②④口 |③---|
口③⑤口 |④-⑤-|
口口⑥口 |⑥---|
35
口口口口 |①---|
口①⑤② |②-③-|
口口口③ |④---|
口口口④ |⑤---|
36
口④口口 |①-②-|
①口⑤口 |③---|
②口口口 |④---|
③口口口 |⑤---|
37
口口口口 |①---|
口口④口 |②---|
口③口② |③---|
口①①口 |④---|
38
口口①口 |①---|
口口口口 |----|
口口口口 |----|
口口②口 |②---|
39
口口②口 |①---|
口③④口 |②-③-|
口①⑤口 |--④-|
口口口口 |--⑤-|
40
口口口口 |----|
口口口口 |----|
口口口口 |----|
口口口口 |----|
41
口口口口 |----|
口口口口 |----|
口②②口 |①---|
①口口① |②---|
42
③②②③ |①---|
①口口① |----|
口口口口 |②---|
口口口口 |③---|
43
口口口口 |①---|
口①①口 |----|
口口口口 |----|
口②②口 |②---|
44
口口口口 |----|
口口口口 |----|
口口口口 |①---|
①口口① |----|
45
口口口口 |①---|
口①①口 |----|
口②②口 |----|
口口口口 |②---|
46
口口口口 |----|
口口口口 |----|
口口口口 |----|
口口口口 |----|
47
①⑤口口 |①---|
口口②口 |②-③-|
口③口口 |④---|
口口④口 |⑤---|
48
口口口口 |----|
口口口口 |----|
口口口口 |----|
口口口口 |----|
49
口口①口 |①---|
口②口口 |②---|
口口④③ |③---|
口口⑤口 |④-⑤-|
50
口口口口 |--①-|
口口口③ |②---|
①口口④ |③-④-|
②口口⑤ |⑤---|
51
口口④口 |①---|
口③⑤口 |②---|
②口口口 |③---|
口①口口 |④-⑤-|
52
口口口③ |--①-|
①口口④ |②---|
②口口⑤ |③-④-|
口口口口 |⑤---|
53
口①口口 |①---|
②口口口 |②---|
口③④口 |③---|
口口⑤口 |④-⑤-|
54
①口口口 |--①-|
②口③口 |②---|
口口④口 |③-④-|
口口⑤口 |⑤---|
55
⑥口口⑤ |----|
口④③口 |①-②-|
②口口① |③-④-|
口口口口 |⑤-⑥-|
56
口口口口 |--①-|
⑥口口⑤ |②-③-|
口④③口 |④-⑤-|
②口口① |⑥---|
57
口口①口 |①---|
口口口口 |②---|
口④②口 |③---|
③⑤口口 |④-⑤-|
58
口口口口 |--①-|
③口口口 |②---|
④口口① |③-④-|
⑤口口② |⑤---|
59
口④口口 |①---|
口⑤③口 |②---|
口口口② |③---|
口口①口 |④-⑤-|
60
③口口口 |--①-|
④口口① |②---|
⑤口口② |③-④-|
口口口口 |⑤---|
61
口口①口 |①---|
口口口② |②---|
口④③口 |③---|
口⑤口口 |④-⑤-|
62
口口口① |--①-|
口③口② |②---|
口④口口 |③-④-|
口⑤口口 |⑤---|
63
⑤口口⑥ |----|
口③④口 |①-②-|
①口口② |③-④-|
口口口口 |⑤-⑥-|
64
口口口口 |--①-|
⑤口口⑥ |②-③-|
口③④口 |④-⑤-|
①口口② |⑥---|
65
口口②② |①-②-|
④④口口 |----|
口口口③ |----|
①①口③ |③-④-|
66
④口口口 |--①-|
口口①① |--②-|
口口③口 |③---|
口②口口 |④---|
67
口口口口 |①-②-|
②②④④ |----|
③口口口 |----|
③口①① |③-④-|
68
口口④口 |--①-|
①①口口 |--②-|
口③口口 |③---|
口口口② |④---|
69
口口口口 |①-②-|
④④②② |----|
口口口③ |----|
①①口③ |③-④-|
70
口口④口 |--①-|
口口①① |--②-|
③口②口 |③---|
口口口口 |④---|
71
口口口口 |①-②-|
④④②② |----|
口口口③ |----|
①①口③ |③-④-|
72
口口口口 |--①-|
口口①① |--②-|
③口②口 |③---|
口口口④ |④---|
73
⑦口口⑥ |①-②-|
口⑤口口 |③-④-|
④口口③ |--⑤-|
口②①口 |⑥-⑦-|
74
口⑦⑥口 |--①-|
口⑤口④ |②-③-|
③口②口 |④-⑤-|
口①口口 |⑥-⑦-|
75
口⑦⑥口 |①-②-|
⑤口口口 |③-④-|
口④③口 |--⑤-|
口②口① |⑥-⑦-|
76
口⑦口⑥ |--①-|
口⑤④口 |②-③-|
③口②口 |④-⑤-|
①口口口 |⑥-⑦-|
77
⑦口⑥口 |①-②-|
口口口口 |③-④-|
⑤④口③ |--⑤-|
口②口① |⑥-⑦-|
78
口⑦口⑥ |--①-|
口⑤口④ |②-③-|
口③②口 |④-⑤-|
口①口口 |⑥-⑦-|
79
⑦口⑥口 |①-②-|
⑤口口口 |③-④-|
口④③口 |--⑤-|
口②①口 |⑥-⑦-|
80
⑦口⑥口 |--①-|
⑤口④口 |②-③-|
③口②口 |④-⑤-|
①口口口 |⑥-⑦-|
81
⑥口口⑦ |①-②-|
口口⑤口 |③-④-|
③口口④ |--⑤-|
口①②口 |⑥-⑦-|
82
口⑥⑦口 |--①-|
④口⑤口 |②-③-|
口②口③ |④-⑤-|
口口①口 |⑥-⑦-|
83
口⑥⑦口 |①-②-|
口口口⑤ |③-④-|
口③④口 |--⑤-|
①口②口 |⑥-⑦-|
84
⑥口⑦口 |--①-|
口④⑤口 |②-③-|
口②口③ |④-⑤-|
口口口① |⑥-⑦-|
85
口⑥口⑦ |①-②-|
口口口口 |③-④-|
③口④⑤ |--⑤-|
①口②口 |⑥-⑦-|
86
⑥口⑦口 |--①-|
④口⑤口 |②-③-|
口②③口 |④-⑤-|
口口①口 |⑥-⑦-|
87
口⑥口⑦ |①-②-|
口口口⑤ |③-④-|
口③④口 |--⑤-|
口①②口 |⑥-⑦-|
88
口⑥口⑦ |--①-|
口④口⑤ |②-③-|
口②口③ |④-⑤-|
口口口① |⑥-⑦-|
89
口口口口 |----|
口口口口 |----|
口口口口 |----|
口口口口 |----|

accuracy: 100%
最終更新:2022年05月06日 17:44