アットウィキロゴ
Sorrows
Asako Yoshihiro

EXTREME

Level: 8
BPM: 185
Notes: 602

1
口口口口 |----|
口口口口 |----|
口口口口 |----|
口口口口 |----|
2
口口口口 |----|
口①口口 |----|
口口①口 |①---|
口口口口 |----|
3
①②②口 |①---|
口口口① |----|
①口口口 |----|
口口口口 |②---|
4
①口口口 |----|
口②口口 |①---|
口口口口 |--②-|
口口口口 |----|
5
口口口口 |①---|
口口口口 |----|
口②②口 |----|
①口①口 |②---|
6
口口①口 |----|
口②口口 |①---|
口口口口 |--②-|
口口口口 |----|
7
口②②口 |①---|
口口口口 |----|
口口口口 |----|
口①口① |②---|
8
口口口口 |----|
口②③口 |①---|
①口口口 |②---|
口口口口 |③---|
9
口口口口 |①---|
口口口口 |----|
口①②① |----|
口口口口 |②---|
10
口口口口 |----|
口口①口 |----|
口①口口 |①---|
口口口口 |----|
11
口②②① |①---|
①口口口 |----|
口口口① |----|
口口口口 |②---|
12
口口口口 |----|
口③②口 |①---|
口口口① |②---|
口口口口 |③---|
13
口口口口 |①---|
口口口口 |----|
①口①口 |----|
口②②口 |②---|
14
口口口口 |----|
口③②口 |①---|
口口口① |②---|
口口口口 |③---|
15
口口口口 |①---|
口③③口 |----|
①②①口 |②---|
口口口口 |③---|
16
口口口口 |----|
口口口口 |----|
口①口口 |①---|
口口口口 |----|
17
①口口① |①---|
口②②口 |----|
口口口口 |②---|
口口③口 |③---|
18
口口③口 |①---|
口口口② |②---|
口①口口 |③---|
口口口口 |----|
19
口口口口 |----|
口口口口 |----|
口口口口 |----|
口口口口 |----|
20
口口口口 |----|
口口②口 |----|
口口口口 |-①--|
口①口口 |②---|
21
④⑤口口 |①---|
口③口④ |②-③-|
①口②口 |④---|
口口口① |⑤---|
22
口口口③ |①-②-|
口⑤①口 |③---|
④②口口 |④---|
③口口口 |⑤---|
23
口口口口 |①-②-|
口口①③ |③---|
⑤②口口 |④---|
③口④口 |⑤---|
24
口口口④ |①-②-|
④①⑤③ |③---|
口口②口 |④---|
③口口口 |⑤---|
25
口②口口 |①---|
口③口口 |②---|
口①④口 |③---|
口口口口 |④---|
26
口口口③ |①-②-|
⑥④①口 |③---|
口②⑤口 |④-⑤-|
③口口⑥ |⑥---|
27
口④口口 |①---|
口③①④ |②-③-|
②口⑤口 |④---|
口口口口 |⑤---|
28
③口口口 |①-②-|
口④①口 |③---|
口②⑤口 |④---|
口口口③ |⑤---|
29
口口⑤④ |①---|
④口③① |②-③-|
口②口口 |④---|
①口口口 |⑤---|
30
③口口口 |①-②-|
口①⑤口 |③---|
口口②④ |④---|
口口口③ |⑤---|
31
口口口口 |①-②-|
③①口口 |③---|
口口②⑤ |④---|
口④口③ |⑤---|
32
④口口口 |①-②-|
口⑤①口 |③---|
③②口口 |④---|
口口③④ |⑤---|
33
口口②口 |①---|
口口③口 |②---|
口④①口 |③---|
口口口口 |④---|
34
口口口⑥ |①-②-|
③①④口 |③---|
口⑤②口 |④-⑤-|
⑥口口③ |⑥---|
35
口口④口 |①---|
口①③口 |②-③-|
④⑤口② |④---|
口口口口 |⑤---|
36
口口口③ |①-②-|
口①④口 |③---|
口口②口 |④---|
③口⑤口 |⑤---|
37
口口口口 |①---|
口口④① |②---|
①③口口 |③---|
口②口口 |④---|
38
口口①口 |①---|
口口口口 |----|
口口口口 |----|
口口口② |②---|
39
口口②口 |①---|
口口③口 |②-③-|
④①④⑤ |--④-|
口口⑤口 |--⑤-|
40
口口①口 |----|
口口②口 |①---|
口③口口 |②---|
口口口口 |③---|
41
口口口口 |①---|
口③③口 |----|
②③③② |②---|
②①口② |③---|
42
口①①口 |①---|
①③③① |----|
③口口③ |②---|
口②②口 |③---|
43
①②②① |①---|
①口口① |----|
口口口口 |----|
口口口口 |②---|
44
口口口口 |①---|
口口①口 |②---|
口②口口 |③---|
③口口③ |----|
45
口口口口 |①---|
口①①口 |----|
①②②① |----|
口口口口 |②---|
46
口口①口 |----|
口口②口 |①---|
口③口口 |②---|
口口口口 |③---|
47
口⑤⑤口 |①---|
⑤④口⑤ |②-③-|
①口③① |④---|
①②口① |⑤---|
48
口口口口 |--①-|
口③①口 |②---|
口②④口 |③-④-|
口⑤口口 |⑤---|
49
⑥⑥②口 |①---|
口口②⑤ |②---|
①③③① |③-④-|
①口④① |⑤-⑥-|
50
口口口口 |--①-|
口③③口 |②---|
②④④① |③-④-|
口⑤⑤口 |⑤---|
51
口口⑤④ |①---|
口③③① |②---|
②口口① |③---|
②口口口 |④-⑤-|
52
口①口口 |①-②-|
口口⑧口 |③-④-|
⑦④②⑥ |⑤-⑥-|
口③⑤口 |⑦-⑧-|
53
①①口口 |①---|
口口口口 |②---|
口②口口
口口口口

⑥⑥口⑤
口口口口
口口口④ |③-④-|
口口③口 |⑤-⑥-|
54
口口口口 |--①-|
口口①口 |②---|
口②④③ |③-④-|
⑤⑤口口 |⑤---|
55
口口口口 |①---|
①①口② |②-③-|
口口口口
口口③口

口口⑥⑥
口⑦口口
④④口口 |④-⑤-|
⑤⑤口口 |⑥-⑦-|
56
②口⑥⑧ |①-②-|
②口③③ |③-④-|
④④①口 |⑤-⑥-|
口⑦⑤⑤ |⑦-⑧-|
57
口②⑥⑥ |①---|
⑤②口口 |②---|
口③③口 |③-④-|
①④口口 |⑤-⑥-|
58
口口口口 |--①-|
口③③口 |②---|
①④④② |③-④-|
口⑤⑤口 |⑤---|
59
④⑤口口 |①---|
①③③口 |②---|
①口口② |③---|
口口口② |④-⑤-|
60
口口①口 |①-②-|
口⑧口口 |③-④-|
⑥②④⑦ |⑤-⑥-|
口⑤③口 |⑦-⑧-|
61
口口①① |①---|
口口口口 |②---|
口口②口
口口口口

⑤口⑥⑥
口口口口
④口口口 |③-④-|
口③口口 |⑤-⑥-|
62
口口口口 |--①-|
口①口口 |②---|
③④②口 |③-④-|
口口⑤⑤ |⑤---|
63
口口口口 |①---|
②口①① |②-③-|
口口口口
口③口口

⑥⑥口口
口口⑦口
口口④④ |④-⑤-|
口口⑤⑤ |⑥-⑦-|
64
口口口② |①-②-|
③③⑧② |③-④-|
⑤①④④ |⑤-⑥-|
⑤⑥口⑦ |⑦-⑧-|
65
②②口① |①-②-|
口口口① |--③-|
口口口口
③口口口

口口⑥口
口⑤口⑥
⑤④⑥口 |④---|
口⑤口口 |⑤-⑥-|
66
口①口口 |--①-|
①口④口 |--②-|
口③口① |③---|
口口①② |④---|
67
口④②② |①-②-|
④口③口 |----|
①④口③ |----|
①口③口 |③-④-|
68
口口①口 |--①-|
③口口① |----|
①口②口 |②---|
口①口口 |③---|
69
②②④口 |①-②-|
口③口④ |----|
③口④① |----|
口③口① |③-④-|
70
口①口口 |--①-|
①口②口 |----|
口③口① |②---|
口口①口 |③---|
71
口④口② |①-②-|
④口③② |----|
口④口③ |----|
①①③口 |③-④-|
72
口口①口 |--①-|
口口口① |----|
①③②口 |②---|
口①口口 |③---|
73
⑧口口⑦ |①-②-|
⑥口⑤口 |③-④-|
④口口③ |⑤-⑥-|
②口口① |⑦-⑧-|
74
⑦口口⑥ |--①-|
⑤口口④ |②-③-|
③口口② |④-⑤-|
①口口口 |⑥-⑦-|
75
⑧口口⑦ |①-②-|
⑥口⑤口 |③-④-|
④口口③ |⑤-⑥-|
②口口① |⑦-⑧-|
76
⑦口口⑥ |--①-|
⑤口口④ |②-③-|
③口②口 |④-⑤-|
①口口口 |⑥-⑦-|
77
⑧口口⑦ |①-②-|
⑥口口口 |③-④-|
④⑤⑤③ |⑤-⑥-|
②口①① |⑦-⑧-|
78
⑧口⑦口 |①-②-|
⑥⑤③⑤ |③-④-|
④口口口 |⑤-⑥-|
②①①口 |⑦-⑧-|
79
⑧口口⑦ |①-②-|
⑥口口口 |③-④-|
④⑤⑤③ |⑤-⑥-|
②口①① |⑦-⑧-|
80
⑦口口⑥ |--①-|
⑤④②④ |②-③-|
③口口口 |④-⑤-|
①口口口 |⑥-⑦-|
81
⑧口⑤⑦ |①-②-|
⑥⑦口⑤ |③-④-|
④口①③ |⑤-⑥-|
②③口① |⑦-⑧-|
82
⑦口⑥⑥ |--①-|
⑤口口④ |②-③-|
③④口② |④-⑤-|
①口②口 |⑥-⑦-|
83
⑧口口⑦ |①-②-|
⑥③⑤⑤ |③-④-|
④⑦①③ |⑤-⑥-|
②口口① |⑦-⑧-|
84
⑦④口⑥ |--①-|
⑤口⑥④ |②-③-|
③口口② |④-⑤-|
①口②口 |⑥-⑦-|
85
⑧⑧口⑦ |①-②-|
⑥④口口 |③-④-|
④②⑤③ |⑤-⑥-|
②⑥口① |⑦-⑧-|
86
⑧⑧⑦口 |①-②-|
⑥⑥③⑤ |③-④-|
④②④口 |⑤-⑥-|
②口①口 |⑦-⑧-|
87
⑧口⑧⑦ |①-②-|
⑥口④口 |③-④-|
④⑥⑤③ |⑤-⑥-|
②②口① |⑦-⑧-|
88
⑦⑦⑦⑦ |--①-|
⑦⑥②⑦ |②-③-|
③⑤⑤⑥ |④-⑤-|
①④口④ |⑥-⑦-|
89
口口口口 |----|
口口口口 |----|
口口口口 |----|
口口口口 |----|

accuracy: 100%
最終更新:2022年05月06日 17:57