アットウィキロゴ
Wuv U
kors k

BASIC

Level: 4
BPM: 173
Notes: 212

1
口口口口 |----|
口口口口 |----|
口口口口 |----|
口口口口 |----|
2
口口口口 |①---|
口口口口 |----|
口①①口 |----|
口口口口 |----|
3
②口口口 |①---|
①口口口 |----|
口口口口 |②---|
口口口口 |----|
4
口口口口 |①---|
口口口口 |----|
口①①口 |----|
口口口口 |----|
5
口口口② |①---|
口口口① |----|
口口口口 |②---|
口口口口 |----|
6
口口口口 |①---|
口口口口 |----|
口①①口 |----|
口口口口 |----|
7
②口口口 |①---|
①口口口 |----|
口口口口 |②---|
口口口口 |----|
8
口口口口 |①---|
口口口口 |----|
口①①口 |----|
口口口口 |----|
9
②口口口 |①---|
口①①口 |----|
口口口口 |②---|
口口口口 |----|
10
口口③口 |①---|
口口②口 |②---|
口口①口 |③---|
口口口口 |----|
11
口③口口 |①---|
口②口口 |②---|
口①口口 |③---|
口口口口 |----|
12
口口口口 |①---|
口④③口 |②---|
口②①口 |③---|
口口口口 |④---|
13
口③②① |①---|
口口口口 |②---|
口口口口 |③---|
口口口口 |----|
14
口口③口 |①---|
口口②口 |②---|
口口①口 |③---|
口口口口 |----|
15
口③口口 |①---|
口②口口 |②---|
口①口口 |③---|
口口口口 |----|
16
②口口① |①---|
④口口③ |②---|
口口口口 |③---|
口口口口 |④---|
17
口口口口 |①---|
口口口口 |②---|
②口口① |③---|
口口口③ |----|
18
口口口口 |①---|
口口口口 |②---|
口口口口 |③---|
①②③④ |④---|
19
口口口口 |①---|
口①②口 |②---|
口③④口 |③---|
口口口口 |④---|
20
①口口口 |①---|
口②口口 |②---|
口口③口 |③---|
口口口④ |④---|
21
口④口口 |①---|
口③口口 |②---|
口②口口 |③---|
口①口口 |④---|
22
口口②口 |①---|
口口口口 |②---|
口口①口
口口口口

口口口口
口口口口
口③④口 |③---|
口口口口 |④---|
23
口口口口 |①---|
①口口② |②---|
③口口④ |③---|
口口口口 |④---|
24
口①口口 |①---|
口口②口 |②---|
口③口口 |③---|
口口④口 |④---|
25
口④口口 |①---|
口③口口 |②---|
口②口口 |③---|
口①口口 |④---|
26
口口②口 |①---|
口口口口 |②---|
口口①口
口口口口

口口口口
口口口口
口③④口 |③---|
口口口口 |④---|
27
口口口口 |①---|
①口口② |②---|
③口口④ |③---|
口口口口 |④---|
28
口口④口 |①---|
口③口口 |②---|
口口②口 |③---|
口①口口 |④---|
29
①口口口 |①---|
口口口② |②---|
③口口口 |③---|
口口口④ |④---|
30
口口口口 |①---|
口②②口 |--②-|
口①①口
口口口口

口口口口
口口口口
口③③口 |----|
口口口口 |③---|
31
②口口③ |--①-|
口①①口 |----|
口口口口 |②---|
口口口口 |③---|
32
口口④口 |①---|
口③口口 |②---|
口口②口 |③---|
口①口口 |④---|
33
①口口口 |①---|
口口口② |②---|
③口口口 |③---|
口口口④ |④---|
34
口口口口 |①---|
口①口口 |----|
口口②口 |②---|
口口口口 |----|
35
口口口口 |①---|
口口②口 |----|
口①口口 |②---|
口口口口 |----|
36
①口口口 |①---|
口口口口 |----|
口口口口 |②---|
口口口② |----|
37
口口口② |①---|
口口口口 |----|
口口口口 |②---|
①口口口 |----|
38
口口口口 |①---|
口①口口 |----|
口口②口 |②---|
口口口口 |----|
39
口口口口 |①---|
口口②口 |----|
口①口口 |②---|
口口口口 |----|
40
①口口口 |①---|
口口口口 |----|
口口口口 |②---|
口口口② |----|
41
口口口口 |①---|
口③口口 |----|
口口②口 |②---|
①口口口 |③---|
42
①②③④ |①---|
口口口口 |②---|
口口口口 |③---|
口口口口 |④---|
43
口口口口 |①---|
④③②① |②---|
口口口口 |③---|
口口口口 |④---|
44
口口口口 |①---|
口口口口 |②---|
①②③④ |③---|
口口口口 |④---|
45
口口口口 |①---|
口口口口 |②---|
口口口口 |③---|
④③②① |④---|
46
口口口口 |①---|
口口口口 |②---|
①②③口 |③---|
口口口口 |----|
47
口口口口 |①---|
口③②① |②---|
口口口口 |③---|
口口口口 |----|
48
①口口② |①---|
③口口④ |②---|
口口口口 |③---|
口口口口 |④---|
49
②口口口 |①---|
口口口口 |----|
①口口口 |②---|
口口口口 |----|
50
口口③口 |①---|
口口②口 |②---|
口口①口 |③---|
口口口口 |----|
51
口③口口 |①---|
口②口口 |②---|
口①口口 |③---|
口口口口 |----|
52
口口口口 |①---|
口④③口 |②---|
口②①口 |③---|
口口口口 |④---|
53
口③②① |①---|
口口口口 |②---|
口口口口 |③---|
口口口口 |----|
54
口口③口 |①---|
口口②口 |②---|
口口①口 |③---|
口口口口 |----|
55
口③口口 |①---|
口②口口 |②---|
口①口口 |③---|
口口口口 |----|
56
②口口① |①---|
④口口③ |②---|
口口口口 |③---|
口口口口 |④---|
57
②③口口 |①---|
口口口口 |----|
口口口① |②---|
口口口口 |③---|
58
口口③口 |①---|
④口②口 |②---|
口口①口 |③---|
口口口口 |④---|
59
口③口口 |①---|
口②口④ |②---|
口①口口 |③---|
口口口口 |④---|
60
①口口口 |①---|
口②口口 |②---|
口口③口 |③---|
口口口④ |④---|
61
口口口口 |①---|
口③口口 |②---|
口②口口 |③---|
口①口口 |----|
62
口口③口 |①---|
④口②口 |②---|
口口①口 |③---|
口口口口 |④---|
63
口③口口 |①---|
口②口④ |②---|
口①口口 |③---|
口口口口 |④---|
64
口口④口 |①---|
口③口口 |②---|
口口②口 |③---|
口①口口 |④---|
65
口①口口 |①---|
口口②口 |②---|
口③口口 |③---|
口口口口 |----|
66
口口口口 |①---|
口①①口 |----|
口口口口 |----|
口口口口 |----|

accuracy: 100%
最終更新:2022年05月14日 16:02