アットウィキロゴ
Wuv U
kors k

ADVANCED

Level: 7
BPM: 173
Notes: 424

1
口口口口 |----|
口口口口 |----|
口口口口 |----|
口口口口 |----|
2
口口口口 |①---|
口④②口 |②---|
口①③口 |③---|
口口口口 |④---|
3
①口口② |①-②-|
③口口④ |③-④-|
⑤口口⑥ |⑤-⑥-|
⑦口口⑧ |⑦-⑧-|
4
口口口口 |①---|
口④②口 |②---|
口①③口 |③---|
口口口口 |④---|
5
⑦口口⑧ |①-②-|
⑤口口⑥ |③-④-|
③口口④ |⑤-⑥-|
①口口② |⑦-⑧-|
6
口口口口 |①---|
口④②口 |②---|
口①③口 |③---|
口口口口 |④---|
7
①口口② |①-②-|
③口口④ |③-④-|
⑤口口⑥ |⑤-⑥-|
⑦口口⑧ |⑦-⑧-|
8
口口口口 |①---|
口④②口 |②---|
口①③口 |③---|
口口口口 |④---|
9
②③口口 |①---|
口⑥⑤④ |--②-|
①口口① |③-④-|
口口口口 |⑤-⑥-|
10
口口口⑤ |①---|
口口④口 |②-③-|
口口③口 |④---|
⑥口②① |⑤-⑥-|
11
⑤④口口 |--①-|
口③口口 |②-③-|
口②口口 |④---|
口①口口 |⑤---|
12
口口②① |①-②-|
③④口口 |③-④-|
口口口⑤ |⑤---|
⑥⑦口口 |⑥-⑦-|
13
口④⑤口 |①-②-|
⑥口③口 |③-④-|
口②口口 |⑤---|
口口①口 |⑥---|
14
口口口⑤ |①---|
口口④口 |②-③-|
口口③口 |④---|
⑥口②① |⑤-⑥-|
15
⑤④口口 |--①-|
口③口口 |②-③-|
口②口口 |④---|
口①口口 |⑤---|
16
⑦⑧⑥⑤ |①-②-|
口口口口 |③-④-|
③④口口 |⑤-⑥-|
口口②① |⑦-⑧-|
17
口口口口 |--①-|
口③②口 |--②-|
口③②口 |③---|
①口口④ |④---|
18
②口口② |①---|
口③⑥口 |②---|
口⑤④口 |③-④-|
口①口口 |⑤-⑥-|
19
①②③④ |①-②-|
口口口口 |③-④-|
口口口口 |⑤-⑥-|
⑤⑥⑦⑧ |⑦-⑧-|
20
口口口口 |①-②-|
⑥②④⑧ |③-④-|
①⑤⑦③ |⑤-⑥-|
口口口口 |⑦-⑧-|
21
口②②口 |①---|
口③④口 |②---|
口③④口 |③---|
口①①口 |④---|
22
②③口② |①---|
口口④口 |②---|
口⑤口口 |③-④-|
①口⑥口 |⑤-⑥-|
23
④口口⑧ |①-②-|
③口口⑦ |③-④-|
②口口⑥ |⑤-⑥-|
①口口⑤ |⑦-⑧-|
24
口口口口 |①-②-|
①②⑧⑦ |③-④-|
口口口口 |⑤-⑥-|
⑤⑥④③ |⑦-⑧-|
25
①口③口 |①---|
口②口④ |②---|
①②③④ |③---|
口口口口 |④---|
26
②口口② |①---|
口③⑥口 |②---|
口⑤④口 |③-④-|
口①口口 |⑤-⑥-|
27
①②③④ |①-②-|
口口口口 |③-④-|
口口口口 |⑤-⑥-|
⑤⑥⑦⑧ |⑦-⑧-|
28
口口口口 |①-②-|
⑥②④⑧ |③-④-|
①⑤⑦③ |⑤-⑥-|
口口口口 |⑦-⑧-|
29
④②②④ |①---|
口口口口 |②---|
口口口口 |③---|
③①①③ |④---|
30
口口口口 |①---|
②①①② |--②-|
②①①②
口口口口

口口口口
口③③口
口③③口 |----|
口口口口 |③---|
31
③口口③ |--①-|
①口口① |----|
①口口① |②---|
口②②口 |③---|
32
口口口口 |①-②-|
①②⑧⑦ |③-④-|
口口口口 |⑤-⑥-|
⑤⑥④③ |⑦-⑧-|
33
①口口② |①-②-|
口⑤⑥口 |③-④-|
③口口④ |⑤-⑥-|
口⑦口口 |⑦---|
34
⑤⑥口① |①---|
口口口口 |②--③|
口口口口 |-④--|
②口④③ |⑤-⑥-|
35
⑤⑥口① |①---|
口口口口 |②--③|
口口口口 |-④--|
②口④③ |⑤-⑥-|
36
口口口口 |①---|
口②④③ |②--③|
⑤⑥①口 |-④--|
口口口口 |⑤-⑥-|
37
口②口口 |①---|
口口④③ |②--③|
⑤⑥口口 |-④--|
口口①口 |⑤-⑥-|
38
⑤⑥口① |①---|
口口口口 |②--③|
口口口口 |-④--|
②口④③ |⑤-⑥-|
39
⑤⑥口① |①---|
口口口口 |②--③|
口口口口 |-④--|
②口④③ |⑤-⑥-|
40
口口口口 |①---|
口②④③ |②--③|
⑤⑥①口 |-④--|
口口口口 |⑤-⑥-|
41
口②口③ |①---|
口口口口 |②---|
口口口口 |③---|
④口①口 |④---|
42
⑤口口口 |①---|
口②口口 |②-③-|
口口③口 |④---|
口④①口 |--⑤-|
43
口口①口 |--①-|
口②口口 |②-③-|
口口③口 |④---|
口④口口 |----|
44
④⑥口⑤ |①-②-|
口口口③ |③-④-|
②口⑦口 |⑤---|
口口口① |⑥-⑦-|
45
口口口口 |--①-|
④③②口 |②-③-|
口①口口 |④---|
口口口口 |----|
46
口⑤⑤① |①---|
口口口③ |②-③-|
口口口口 |④---|
②④④口 |⑤---|
47
①口口口 |①---|
③④④口 |②-③-|
口④④口 |④---|
口口口② |----|
48
⑤口口② |①-②-|
口⑥⑥口 |③---|
口③③口 |④-⑤-|
①口口④ |⑥---|
49
②③口口 |①---|
口⑥⑤④ |--②-|
①口口① |③-④-|
口口口口 |⑤-⑥-|
50
口口口⑤ |①---|
口口④口 |②-③-|
口口③口 |④---|
⑥口②① |⑤-⑥-|
51
⑤④口口 |--①-|
口③口口 |②-③-|
口②口口 |④---|
口①口口 |⑤---|
52
口口②① |①-②-|
③④口口 |③-④-|
口口口⑤ |⑤---|
⑥⑦口口 |⑥-⑦-|
53
口④⑤口 |①-②-|
⑥口③口 |③-④-|
口②口口 |⑤---|
口口①口 |⑥---|
54
口口口⑤ |①---|
口口④口 |②-③-|
口口③口 |④---|
⑥口②① |⑤-⑥-|
55
⑤④口口 |--①-|
口③口口 |②-③-|
口②口口 |④---|
口①口口 |⑤---|
56
⑦⑧⑥⑤ |①-②-|
口口口口 |③-④-|
③④口口 |⑤-⑥-|
口口②① |⑦-⑧-|
57
口口口① |----|
⑤口②口 |--①-|
口③口口 |②-③-|
口口口④ |④-⑤-|
58
⑦口口③ |①-②-|
口④口口 |③-④-|
②口⑤口 |⑤---|
⑥口①口 |⑥-⑦-|
59
口②口口 |--①-|
口口③口 |②-③-|
口④口⑤ |④---|
口口口① |⑤---|
60
③④⑥⑤ |①-②-|
⑦⑧口② |③-④-|
口口口口 |⑤-⑥-|
①口口口 |⑦-⑧-|
61
口口口口 |①-②-|
口口⑤口 |③-④-|
口④③口 |⑤---|
口②①⑥ |⑥---|
62
⑦口口③ |①-②-|
口④口口 |③-④-|
②口⑤口 |⑤---|
⑥口①口 |⑥-⑦-|
63
口②口口 |--①-|
口口③口 |②-③-|
口④口⑤ |④---|
口口口① |⑤---|
64
⑤口④口 |①-②-|
口③口⑥ |③-④-|
⑦口②口 |⑤-⑥-|
口①口⑧ |⑦-⑧-|
65
口口口③ |--①-|
口②①口 |--②-|
口①②口 |③---|
③口④口 |④---|
66
口口口口 |①---|
①口口① |----|
①口口① |----|
口口口口 |----|

accuracy: 100%
最終更新:2022年05月14日 16:11